Marvel's Avengers Deluxe Edition (супер цена) 159р. Внимание количество ограничено!!!

2 сезон

iTunes

iTunes

1

iTunes

iTunes

iTunes

WEBRip

iTunes

30
pack

Новость дня

ВАЖНО

!!Акция!!

Alien_RageХит недели

RePack

Horizon Zero Dawn

ИГРА 18+

pack

RePack

jed

!!Акция!!

Alien_Rage

RePack

fifa19

RePack

Assassins Creed: Odyssey

RePack

NEED FOR SPEED™ PAYBACK

4 сезон

9 сезон

Бесстыжие 9 сезон

Все сериалы

все сериалы на PB.wtf

RePack

FAR CRY 5
  

D.O.A.: Живым или мертвым / DOA: Dead or Alive (Кори Юэнь / Corey Yuen) [2006, боевик, приключения, DVDRip-AVC] [Fullscreen] [Dub] (Пифагор) piratbit.org

D.O.A.: Живым или мертвым через торрент piratbit.org

Размер: 2.06 GB | Добавлен: 1 год 2 мес. назад | Торрент скачан:24 раза
Скачать  

29-06-2019 10:49 D.O.A.: Живым или мертвым Скачать торрент  

D.O.A.: Живым или мертвым / DOA: Dead or Alive / Fullscreen

Страна: США, Германия
Жанр: боевик, приключения
Год выпуска: 2006
Продолжительность: 01:22:33
Перевод: Профессиональный (дублированный) Пифагор
Субтитры: русские, английские

Режиссер: Кори Юэнь / Corey Yuen

В ролях: Джейми Прессли, Девон Аоки, Холли Вэлэнс, Сара Картер, Наташа Мальте, Кейн Косуги, Мэттью Мэрсден, Эрик Робертс, Стив Хоуи, Брайан Дж. Уайт...

Описание: «Живой или Мертвый» — название международного турнира боевых искусств, в котором состязаются лучшие бойцы со всего мира. Участники прилетают на экзотический остров, где им приходится сражаться друг с другом. Проигравший покидает остров, а победитель переходит в следующий этап. В четверть финала выходят 4 участника, которые должны продолжить борьбу за главный приз состязания — 10 млн. долларов. Но у организатора турнира Донована совсем другие планы на их счет…



Качество видео: DVDRip-AVC
Формат видео: MKV

Видео: 720x574 (4:3) @ 768x574, 25.000 fps, AVC, ~2802 Kbps, 0.271 bits/pixel
Аудио 1: Russian, 48.0 KHz, AC3, 6 ch, 384 Kbps - Пифагор
Аудио 2: English, 48.0 KHz, AC3, 6 ch, 384 Kbps
avs4x26x.exe: -L x264_64.exe --pass 2 --bitrate 2802 --preset medium --tune film --level 4.1 --ref 10 --merange 32 --bframes 10 --direct auto --b-adapt 2 --trellis 2 --no-fast-pskip --no-dct-decimate --psy-rd 1.00:0.20 --subme 10 --me umh --no-mbtree --vbv-bufsize 62500 --vbv-maxrate 50000 --partitions p8x8,b8x8,i4x4,i8x8 --sar 16:15 --stats

raw [info]: 720x574p 16:15 @ 25/1 fps (cfr)
x264 [info]: using SAR=16/15
x264 [info]: using cpu capabilities: MMX2 SSE2Fast LZCNT
x264 [info]: profile High, level 4.1, 4:2:0, 8-bit
x264 [info]: frame I:1312 Avg QP:17.48 size: 54198
x264 [info]: frame P:33100 Avg QP:20.05 size: 25657
x264 [info]: frame B:89413 Avg QP:22.23 size: 9110
x264 [info]: consecutive B-frames: 5.6% 5.9% 12.9% 24.8% 12.8% 34.3% 1.9% 0.6% 0.2% 1.0% 0.0%
x264 [info]: mb I I16..4: 9.2% 78.4% 12.4%
x264 [info]: mb P I16..4: 2.2% 33.1% 2.3% P16..4: 30.5% 19.7% 9.6% 0.0% 0.0% skip: 2.6%
x264 [info]: mb B I16..4: 0.2% 3.1% 0.3% B16..8: 35.6% 10.2% 2.7% direct:14.3% skip:33.6% L0:41.2% L1:37.0% BI:21.7%
x264 [info]: 8x8 transform intra:87.0% inter:65.5%
x264 [info]: direct mvs spatial:97.3% temporal:2.7%
x264 [info]: coded y,uvDC,uvAC intra: 91.8% 84.1% 44.6% inter: 36.4% 35.1% 9.3%
x264 [info]: i16 v,h,dc,p: 22% 12% 15% 51%
x264 [info]: i8 v,h,dc,ddl,ddr,vr,hd,vl,hu: 15% 11% 13% 8% 10% 11% 10% 11% 11%
x264 [info]: i4 v,h,dc,ddl,ddr,vr,hd,vl,hu: 16% 9% 4% 8% 14% 15% 13% 11% 10%
x264 [info]: i8c dc,h,v,p: 28% 26% 27% 20%
x264 [info]: Weighted P-Frames: Y:1.8% UV:1.1%
x264 [info]: ref P L0: 47.7% 11.9% 18.2% 5.7% 5.4% 3.3% 3.1% 1.6% 1.6% 1.3% 0.1% 0.0%
x264 [info]: ref B L0: 78.7% 11.4% 3.9% 2.0% 1.4% 1.1% 0.8% 0.4% 0.2%
x264 [info]: ref B L1: 96.6% 3.4%
x264 [info]: kb/s:2802.18

x264 [total]: encoded 123825 frames, 8.41 fps, 2802.18 kb/s
General
Unique ID : 50358223180295551888943367302079858096 (0x25E2A4185F8EF3B822943870597045B0)
Complete name : C:\DOA Dead or Alive [Fullscreen].mkv
Format : Matroska
Format version : Version 4 / Version 2
File size : 2.06 GiB
Duration : 1 h 22 min
Overall bit rate : 3 572 kb/s
Encoded date : UTC 2019-03-08 15:15:22
Writing application : mkvmerge v30.1.0 ('Forever And More') 64-bit
Writing library : libebml v1.3.6 + libmatroska v1.4.9

Video
ID : 1
Format : AVC
Format/Info : Advanced Video Codec
Format profile : High@L4.1
Format settings : CABAC / 10 Ref Frames
Format settings, CABAC : Yes
Format settings, ReFrames : 10 frames
Codec ID : V_MPEG4/ISO/AVC
Duration : 1 h 22 min
Bit rate : 2 802 kb/s
Width : 720 pixels
Height : 574 pixels
Display aspect ratio : 4:3
Frame rate mode : Constant
Frame rate : 25.000 FPS
Color space : YUV
Chroma subsampling : 4:2:0
Bit depth : 8 bits
Scan type : Progressive
Bits/(Pixel*Frame) : 0.271
Stream size : 1.62 GiB (78%)
Writing library : x264 core 157 r2935 545de2f
Encoding settings : cabac=1 / ref=10 / deblock=1:-1:-1 / analyse=0x3:0x113 / me=umh / subme=10 / psy=1 / psy_rd=1.00:0.20 / mixed_ref=1 / me_range=32 / chroma_me=1 / trellis=2 / 8x8dct=1 / cqm=0 / deadzone=21,11 / fast_pskip=0 / chroma_qp_offset=-3 / threads=6 / lookahead_threads=1 / sliced_threads=0 / nr=0 / decimate=0 / interlaced=0 / bluray_compat=0 / constrained_intra=0 / bframes=10 / b_pyramid=2 / b_adapt=2 / b_bias=0 / direct=3 / weightb=1 / open_gop=0 / weightp=2 / keyint=250 / keyint_min=25 / scenecut=40 / intra_refresh=0 / rc_lookahead=40 / rc=2pass / mbtree=0 / bitrate=2802 / ratetol=1.0 / qcomp=0.60 / qpmin=0 / qpmax=69 / qpstep=4 / cplxblur=20.0 / qblur=0.5 / vbv_maxrate=50000 / vbv_bufsize=62500 / nal_hrd=none / filler=0 / ip_ratio=1.40 / pb_ratio=1.30 / aq=1:1.00
Language : English
Default : Yes
Forced : No

Audio #1
ID : 2
Format : AC-3
Format/Info : Audio Coding 3
Commercial name : Dolby Digital
Codec ID : A_AC3
Duration : 1 h 22 min
Bit rate mode : Constant
Bit rate : 384 kb/s
Channel(s) : 6 channels
Channel layout : L R C LFE Ls Rs
Sampling rate : 48.0 kHz
Frame rate : 31.250 FPS (1536 SPF)
Bit depth : 16 bits
Compression mode : Lossy
Stream size : 227 MiB (11%)
Title : Пифагор
Language : Russian
Service kind : Complete Main
Default : Yes
Forced : No

Audio #2
ID : 3
Format : AC-3
Format/Info : Audio Coding 3
Commercial name : Dolby Digital
Codec ID : A_AC3
Duration : 1 h 22 min
Bit rate mode : Constant
Bit rate : 384 kb/s
Channel(s) : 6 channels
Channel layout : L R C LFE Ls Rs
Sampling rate : 48.0 kHz
Frame rate : 31.250 FPS (1536 SPF)
Bit depth : 16 bits
Compression mode : Lossy
Stream size : 227 MiB (11%)
Language : English
Service kind : Complete Main
Default : No
Forced : No

Text #1
ID : 4
Format : UTF-8
Codec ID : S_TEXT/UTF8
Codec ID/Info : UTF-8 Plain Text
Duration : 1 h 17 min
Bit rate : 55 b/s
Count of elements : 690
Stream size : 31.7 KiB (0%)
Language : Russian
Default : No
Forced : No

Text #2
ID : 5
Format : UTF-8
Codec ID : S_TEXT/UTF8
Codec ID/Info : UTF-8 Plain Text
Duration : 1 h 15 min
Bit rate : 37 b/s
Count of elements : 527
Stream size : 20.7 KiB (0%)
Language : English
Default : No
Forced : No

Menu
00:00:00.000 : :01. Начальные титры
00:01:03.880 : :02. "Не верю, что брат мертв"
00:10:24.800 : :03. Кристи - воровка-виртуоз
00:16:33.600 : :04. "Добро пожаловать на DOA"
00:19:20.320 : :05. День первый
00:23:28.240 : :06. "Надо найти сейф"
00:31:21.120 : :07. "Просто спим вместе"
00:37:32.520 : :08. Вверх по лестнице
00:42:05.040 : :09. "Хелена это ключ"
00:44:23.640 : :10. День третий
00:50:32.720 : :11. "Я иду одна"
00:57:12.920 : :12. "Пора снимать урожай"
01:04:31.400 : :13. Головоломка
01:10:02.280 : :14. Четверо против одного
01:14:27.760 : :15. "А где миллионы?"
01:15:52.080 : :16. Неделю спустя
скриншот  скриншот  скриншот  
piratbit.org



Скачать D.O.A.: Живым или мертвым через торрент https://i6.imageban.ru/out/2019/03/08/e3ec7f33ce195d97479d46cb25cb5d1a.png Скачать фильм D.O.A.: Живым или мертвым через торрент бесплантно в хорошем качестве Описание: «Живой или Мертвый» — название международного турнира боевых искусств, в котором состязаются лучшие бойцы со всего мира. ... 10 10 3
Торрент: Зарегистрирован [2019-06-29 10:49] · скачан: 24 раз
Статус: √ проверено
Размер: 2.06 GB
Как cкачать? Как скачать D.O.A.: Живым или мертвым через торрент | qTorrent

% Раздел Тема Автор DL S | L
Фильмы (HD 720p, 1080p) (48-60 fps) [ 4.44 GB ] D.O.A: Живым или мертвым / DOA: Dead or Alive [2006 BDRip 720p 60 fps от еnvy / NNNB] DUB еnvy Скачать
2 | 0

28-11-2019 20:33  

Отключить всю рекламу на сайте

29-06-2019 10:58 D.O.A.: Живым или мертвым Скачать торрент  

хороши девкиpiratbit.org



    Дорогой пользователь! Огромная просьба, поблагодарите релизера, оцените раздачу и оставьте свои комментарий, если Вы скачали D.O.A.: Живым или мертвым через торрент бесплатно! Внесите свою лепту в развитие PiratBit!
    Комментировать посты могут только пользователи прошедшие не сложную регистрацию
    Показать сообщения:    

    D.O.A.: Живым или мертвым через торрент
    Скачать бесплатно D.O.A.: Живым или мертвым
    D.O.A.: Живым или мертвым скачать торрент
    D.O.A.: Живым или мертвым смотреть онлайн
    Cкачать фильм D.O.A.: Живым или мертвым бесплатно
    D.O.A.: Живым или мертвым скачать торрент в хорошем качестве
    D.O.A.: Живым или мертвым смотреть онлайн бесплатно в хорошем качестве


    Вы не можете начинать темы
    Вы не можете отвечать на сообщения
    Вы не можете редактировать свои сообщения
    Вы не можете удалять свои сообщения
    Вы не можете голосовать в опросах
    Вы не можете прикреплять файлы к сообщениям
    Вы можете скачивать файлы