2 сезон

iTunes

WEBRip

1

2 сезон

iTunes

1 сезон

1 сезон

RePack

30

Новинка

ВАЖНО

ИГРА 18+

pack

RePack

MK11
pack

Легкие деньги

RePack

jed

RePack

fifa19

RePack

RDR2

RePack

NEED FOR SPEED™ PAYBACK

4 сезон

9 сезон

Бесстыжие 9 сезон

Все сериалы

все сериалы на PB.wtf

RePack

FAR CRY 5

Anonymous, доброй ночи, мы не успеваем собрать деньги на оплату серверов за февраль, помогите нам пожалуйста в это трудное время. В качестве благодарности мы отключим Вам всю рекламу на сайте (укажите свой ник в строку Ваше имя)!

×
  
Magnet ссылка

Тарас. Возвращение / Тарас. Повернення (Александр Денисенко) [2017, исторический, биография, WEB-DLRip 720p] [UKR] piratbit.org

Тарас. Возвращение через торрент piratbit.org

Размер: 3.61 GB | Добавлен: 1 год 8 мес. назад | Торрент скачан:35 раз
Скачать  

29-06-2019 17:37 Тарас. Возвращение Скачать торрент  

Тарас. Возвращение / Тарас. Повернення Год выхода: 2017
Жанр: исторический, биография
Страна: Украина , Казахстан
Студия: ИнсайтМедиа, Одесская киностудия, Tanaris Production при поддержке Государственного агентства Украины по вопросам кино
Продолжительность: 01:59:59
Перевод: Оригинал (украинский язык)

Режиссер: Александр Денисенко


В ролях: Борис Орлов, Богдан Бенюк, Александр Пожарский, Роман Луцкий, Анна Топчий, Акниет Оринтай и другие


О фильме: Фильм рассказывает о последних 3 месяцах ссылки Тараса Шевченко в Казахстане. В то лето поэт, сослан на военную службу в российской царской армии, получает сообщения от друзей из Петербурга: его лично помиловал царь Александр II. Однако военное руководство Новопетровского форта не спешит сообщать об этом Тараса и издавать указ о его увольнении. Более того, тайный агент из Петербурга пытается сделать все, чтобы поэт остался здесь навсегда.

rating

Качество: WEB-DLRip 720p
Формат: MKV
Видео: H.264, 1280х720, 3987 кб/с
Аудио: AAC, 5.1, 320 кб/с | UKR | Оригинал

скриншот  скриншот  скриншот  
Complete name : Taras. Return (2017) WEBDLRip 720p [Hurtom].mkv

Format : Matroska

Format version : Version 4

File size : 3.61 GiB

Duration : 1 h 59 min

Overall bit rate : 4 309 kb/s

Encoded date : UTC 2019-06-25 18:35:35

Writing application : mkvmerge v29.0.0 ('Like It Or Not') 64-bit

Writing library : libebml v1.3.6 + libmatroska v1.4.9

Video

ID : 1

Format : AVC

Format/Info : Advanced Video Codec

Format profile : High@L3.1

Format settings : CABAC / 2 Ref Frames

Format settings, CABAC : Yes

Format settings, ReFrames : 2 frames

Format settings, GOP : M=2, N=30

Codec ID : V_MPEG4/ISO/AVC

Duration : 1 h 59 min

Bit rate : 3 987 kb/s

Width : 1 280 pixels

Height : 720 pixels

Display aspect ratio : 16:9

Frame rate mode : Constant

Frame rate : 24.000 FPS

Color space : YUV

Chroma subsampling : 4:2:0

Bit depth : 8 bits

Scan type : Progressive

Bits/(Pixel*Frame) : 0.180

Stream size : 3.34 GiB (93%)

Default : Yes

Forced : No

Color range : Limited

Color primaries : BT.709

Transfer characteristics : BT.709

Matrix coefficients : BT.709

Audio

ID : 2

Format : AAC LC

Format/Info : Advanced Audio Codec Low Complexity

Codec ID : A_AAC-2

Duration : 1 h 59 min

Bit rate : 320 kb/s

Channel(s) : 6 channels

Channel layout : C L R Ls Rs LFE

Sampling rate : 48.0 kHz

Frame rate : 46.875 FPS (1024 SPF)

Compression mode : Lossy

Stream size : 275 MiB (7%)

Language : Ukrainian

Default : Yes

Forced : No


piratbit.org



Скачать Тарас. Возвращение через торрент http://img16.lostpic.net/2019/06/26/28af168cb037b87c4db0cbcd1da88df8.jpg Скачать фильм Тарас. Возвращение через торрент бесплантно в хорошем качестве О фильме: Фильм рассказывает о последних 3 месяцах ссылки Тараса Шевченко в Казахстане. В то лето поэт, сослан на военную службу в ... 8.2 10 5
Торрент: Зарегистрирован [2019-06-29 17:37] · скачан: 35 раз
Статус: √ проверено
Размер: 3.61 GB
Как cкачать? Как скачать Тарас. Возвращение через торрент | UTorrent

28-11-2019 20:33  

Отключить всю рекламу на сайте

    Дорогой пользователь! Огромная просьба, поблагодарите релизера, оцените раздачу и оставьте свои комментарий, если Вы скачали Тарас. Возвращение через торрент бесплатно! Внесите свою лепту в развитие PiratBit!
    Комментировать посты могут только пользователи прошедшие не сложную регистрацию
    Показать сообщения:    

    Тарас. Возвращение через торрент
    Скачать бесплатно Тарас. Возвращение
    Тарас. Возвращение скачать торрент
    Тарас. Возвращение смотреть онлайн
    Cкачать фильм Тарас. Возвращение бесплатно
    Тарас. Возвращение скачать торрент в хорошем качестве
    Тарас. Возвращение смотреть онлайн бесплатно в хорошем качестве


    Вы не можете начинать темы
    Вы не можете отвечать на сообщения
    Вы не можете редактировать свои сообщения
    Вы не можете удалять свои сообщения
    Вы не можете голосовать в опросах
    Вы не можете прикреплять файлы к сообщениям
    Вы можете скачивать файлы