Доктор Стрэндж

Лицензия

Добыча

MVO

Дом дракона

1 сезон

Тор

Лицензия

Мэверик

Лицензия

Там, где раки поют

MVO

Властелин колец

1 сезон

Ultimate

pack

Рекомендуем

30

Repack

ВАЖНО

ВАЖНО

Ghostwire

RePack

jed

RePack

nioh2

RePack

RDR2

RePack

NEED FOR SPEED™ PAYBACK

RePack

скачать торрент

Кинопоиск HD

Острые козырьки 6 сезон

6 сезон

FAR CRY 6

RePack

скачать торрент

Лицензия

скачать торрент

MVO

1

1 сезон

скачать торрент

1 сезон

скачать торрент

Лицензия

  

Рембрандт (Ефим Копелян, Леонид Пчелкин) [1963, СССР, драма, биография, WEB-DLRip от AVP Studio]

Рембрандт через торрент piratbit.org

Качают: 1 [ 0 KB/s ]
Размер: 1.46 GB | Добавлен: 3 года 3 мес. назад | Торрент скачан:15 раз
Смотреть онлайн Рембрандт | Скачать   

01-07-2019 06:12 Рембрандт Скачать торрент  

Рембрандт
Страна: СССР
Производство: Центральное телевидение и Ленинградская студия телевидения

Жанр: драма, биография
Год выпуска: 1963
Продолжительность: 01:46:59

Перевод: Не требуется
Cубтитры: нет
Оригинальная аудиодорожка: русский

Режиссер: Ефим Копелян, Леонид Пчелкин

В ролях:
Ефим Копелян, Эмма Попова, Людмила Макарова, Георгий Штиль, Михаил Волков, Николай Корн, Олег Басилашвили, Владислав Стржельчик, Борис Рыжухин, Изиль Заблудовский, Сергей Карнович-Валуа, Анатолий Гаричев, Всеволод Кузнецов, Борис Лёскин...
Об актёрах подробней

Описание:
Несколько эпизодов из жизни голландского живописца Харменса ван Рейна Рембрандта.

Источник: WEB-DL 720p
Качество видео: WEB-DLRip
Формат видео: AVI

Видео: 720х480 (1.500:1), 25 fps, XviD ~ 1752 kbps avg, 0.203 bit/pixel
Аудио: 48 kHz, Dolby Digital AC3 2.0, 192 kbps

Раздача от:
Общее
Полное имя : Rembrandt.1963.WEB-DLRip_[New-team]_by_AVP_Studio.avi
Формат : AVI
Формат/Информация : Audio Video Interleave
Размер файла : 1,46 Гбайт
Продолжительность : 1 ч. 46 м.
Общий поток : 1954 Кбит/сек
Программа кодирования : VirtualDubMod 1.5.10.3 | www.virtualdub-fr.org || (build 2550/release)
Библиотека кодирования : VirtualDubMod build 2550/release

Видео
Идентификатор : 0
Формат : MPEG-4 Visual
Профиль формата : Advanced Simple@L5
Настройки формата : BVOP1 / Custom Matrix
Параметр BVOP формата : 1
Параметр QPel формата : Нет
Параметр GMC формата : Без точки перехода
Параметр матрицы формата : Выборочная
Идентификатор кодека : XVID
Идентификатор кодека/Подсказка : XviD
Продолжительность : 1 ч. 46 м.
Битрейт : 1752 Кбит/сек
Ширина : 720 пикселей
Высота : 480 пикселей
Соотношение сторон : 3:2
Частота кадров : 25,000 кадров/сек
Цветовое пространство : YUV
Субдискретизация насыщенности : 4:2:0
Битовая глубина : 8 бит
Тип развёртки : Прогрессивная
Метод сжатия : С потерями
Бит/(Пиксели*Кадры) : 0.203
Размер потока : 1,31 Гбайт (90%)
Библиотека кодирования : XviD 73

Аудио
Идентификатор : 1
Формат : AC-3
Формат/Информация : Audio Coding 3
Коммерческое название : Dolby Digital
Идентификатор кодека : 2000
Продолжительность : 1 ч. 46 м.
Вид битрейта : Постоянный
Битрейт : 192 Кбит/сек
Каналы : 2 канала
ChannelLayout : L R
Частота : 48,0 КГц
Частота кадров : 31,250 кадров/сек (1536 SPF)
Битовая глубина : 16 бит
Метод сжатия : С потерями
Размер потока : 147 Мбайт (10%)
Выравнивание : Разделение по промежуткам
Продолжительность промежутка : 40 мс. (1,00 видеокадр)
Время предзагрузки промежутка : 500 мс.



Скачать Рембрандт через торрент https://a.radikal.ru/a10/2001/f7/d53f920b3b1d.png Скачать, смотреть онлайн Рембрандт бесплантно в хорошем качестве Описание:Несколько эпизодов из жизни голландского живописца Харменса ван Рейна Рембрандта. Источник: WEB-DL ... 10 10 1
Info! Золотая раздача, скачанное не засчитывается.
Торрент: Зарегистрирован [2019-07-01 06:12] · скачан: 15 раз
Статус: √ проверено
Размер: 1.46 GB
Как cкачать? Как скачать Рембрандт через торрент | UTorrent

% Раздел Тема Автор DL S | L
Кино СССР [ 1.46 GB ] Рембрандт | | DLRip-AVC от AVP Studio AVP Studio Скачать
1 | 1

28-11-2019 20:33  

Отключить вcю реклaмy на сайте

    Дорогой пользователь! Огромная просьба, поблагодарите релизера, оцените раздачу и оставьте свои комментарий, если Вы скачали Рембрандт через торрент бесплатно!!
    Комментировать посты могут только пользователи прошедшие не сложную регистрацию
    Показать сообщения:    


    Рембрандт через торрент
    Скачать бесплатно Рембрандт
    Рембрандт скачать торрент
    Рембрандт смотреть онлайн
    Cкачать фильм Рембрандт бесплатно
    Рембрандт скачать торрент в хорошем качестве
    Рембрандт смотреть онлайн бесплатно в хорошем качестве
    Вы не можете начинать темы
    Вы не можете отвечать на сообщения
    Вы не можете редактировать свои сообщения
    Вы не можете удалять свои сообщения
    Вы не можете голосовать в опросах
    Вы не можете прикреплять файлы к сообщениям
    Вы можете скачивать файлы