новый адрес пиратбит piratbit
Мега распродажа FORZA HORIZON 4 ULTIMATE+ВСЕ DLC+ОНЛАЙН всего за 499р. 349 руб. (супер цена). Внимание количество ограничено!!!

iTunes

1+1

iTunes

мы

iTunes

1

iTunes

Чернобыль

iTunes

Ральф против интернета

Лицензия

ПШазам

Лицензия

Игра престолов

Лицензия

30
pack

ВАЖНО

!!Акция!!

Alien_RageХит недели

RePack

Resident Evil 21

ИГРА 18+

pack

RePack

Metro:Exodus

!!Акция!!

Alien_Rage

RePack

fifa19

RePack

Assassins Creed: Odyssey

RePack

NEED FOR SPEED™ PAYBACK

3 сезон

9 сезон

Бесстыжие 9 сезон

Все сериалы

все сериалы на PB.wtf

RePack

FAR CRY 5
Ребята, катастрофически не хватает 1900р. для оплаты серверов за Октябрь (всвязи с блокировками трафик упал в 3 раза), 1-2р., выручайте.
  

Джек Ричер / Jack Reacher (Кристофер МакКуорри) [2012, боевик, BDRip - HEVC 1080p 12 bit 60 FPS] Дубляж piratbit.org

Джек Ричер через торрент piratbit.org

Раздают: 3 [ 4 KB/s ]
Размер: 3.6 GB | Добавлен: 4 мес. 9 д. назад | Торрент скачан:128 раз
Скачать  

02-07-2019 16:01 Джек Ричер Скачать торрент  

Джек Ричер / Jack Reacher
««У закона есть пределы. У него их нет»»

Год выпуска: 2012
Страна: США
Жанр: боевик,
Продолжительность: 02:10:24
Перевод: Дубляж
Субтитры: русские (R5),
Субтитры: английские
Режиссер: Кристофер МакКуорри
В ролях:

Том Круз (Reacher), Розамунд Пайк (Helen), Джай Кортни (Charlie), Дэвид Ойелоуо (Emerson), Ричард Дженкинс (Rodin), Роберт Дювалл (Cash), Вернер Херцог (The Zec), Джозеф Сикора (Barr), Майкл Рэймонд-Джеймс (Linsky), Алексия Фаст (Sandy), Владимир Сизов (Vlad), Джош Хелман (Jeb)
Описание:
Снайпер убивает нескольких случайных прохожих. Его находят и арестовывают. Все улики указывают на него. На допросе вместо признания он пишет имя - Джек Ричер. Больше обвиняемый не может ничего сказать, поскольку после избиения заключёнными впадает в кому. Загадочный Джек Ричер появляется незамедлительно. Что теперь будет с убийцей?
Мировая премьера: 10 декабря 2012

Качество: BDRip 1080p Rip by DD2D3
Формат: MKV
Видео: V_MPEGH/ISO/HEVC, 1920x816 (2.35:1), 3504 kbps, 59,940 fps, 0,037 bpp
Аудио: AC3 / 5.1 / 48 kHz / 448 kbps /
Навигация по главам: есть


Общее
Уникальный идентификатор : 195506105638337031288675845165167266772 (0x93151B378580902FB533B74E77D5CBD4)
Полное имя : D:\Джек Ричер - Jack Reacher BDRip - HEVC 1080p 12 bit 60 FPS.mkv
Формат : Matroska
Версия формата : Version 4
Размер файла : 3,60 Гбайт
Продолжительность : 2 ч. 10 м.
Общий поток : 3957 Кбит/сек
Название фильма : Rip by DD2D3
Дата кодирования : UTC 2019-07-01 20:09:44
Программа кодирования : mkvmerge v10.0.0 ('To Drown In You') 32bit
Библиотека кодирования : libebml v1.3.4 + libmatroska v1.4.5
Attachments : poster

Видео
Идентификатор : 1
Формат : HEVC
Формат/Информация : High Efficiency Video Coding
Профиль формата : @L4.1@Main
Идентификатор кодека : V_MPEGH/ISO/HEVC
Продолжительность : 2 ч. 10 м.
Битрейт : 3505 Кбит/сек
Ширина : 1920 пикселей
Высота : 816 пикселей
Соотношение сторон : 2,35:1
Режим частоты кадров : Постоянный
Частота кадров : 59,940 (60000/1001) кадров/сек
Цветовое пространство : YUV
Субдискретизация насыщенности : 4:2:0
Битовая глубина : 12 бит
Бит/(Пиксели*Кадры) : 0.037
Размер потока : 3,19 Гбайт (89%)
Библиотека кодирования : x265 2.3+33-0b7d54dbb71a87a0:[Windows][MSVC 1800][64 bit] 12bit: KG7x [x265.ru]
Настройки программы : cpuid=1173503 / frame-threads=2 / numa-pools=4 / wpp / no-pmode / no-pme / no-psnr / no-ssim / log-level=2 / input-csp=1 / input-res=1920x816 / interlace=0 / total-frames=468991 / level-idc=41 / high-tier=1 / uhd-bd=0 / ref=3 / no-allow-non-conformance / no-repeat-headers / annexb / no-aud / no-hrd / info / hash=0 / no-temporal-layers / open-gop / min-keyint=25 / keyint=250 / bframes=4 / b-adapt=2 / b-pyramid / bframe-bias=0 / rc-lookahead=20 / lookahead-slices=5 / scenecut=40 / no-intra-refresh / ctu=64 / min-cu-size=8 / no-rect / no-amp / max-tu-size=32 / tu-inter-depth=1 / tu-intra-depth=1 / limit-tu=0 / rdoq-level=0 / dynamic-rd=0.00 / no-ssim-rd / signhide / no-tskip / nr-intra=0 / nr-inter=0 / no-constrained-intra / strong-intra-smoothing / max-merge=2 / limit-refs=3 / no-limit-modes / me=1 / subme=2 / merange=57 / temporal-mvp / weightp / no-weightb / no-analyze-src-pics / deblock=0:0 / no-sao / no-sao-non-deblock / rd=3 / no-early-skip / no-rskip / no-fast-intra / no-tskip-fast / no-cu-lossless / no-b-intra / rdpenalty=0 / psy-rd=4.00 / psy-rdoq=0.00 / no-rd-refine / analysis-mode=0 / no-lossless / cbqpoffs=0 / crqpoffs=0 / rc=abr / bitrate=3500 / qcomp=0.60 / qpstep=1 / stats-write=0 / stats-read=2 / cplxblur=20.0 / qblur=0.5 / ipratio=1.10 / pbratio=1.00 / aq-mode=0 / aq-strength=0.00 / no-cutree / zone-count=0 / no-strict-cbr / qg-size=64 / rc-grain / qpmax=69 / qpmin=0 / sar=1 / overscan=0 / videoformat=5 / range=0 / colorprim=2 / transfer=2 / colormatrix=2 / chromaloc=0 / display-window=0 / max-cll=0,0 / min-luma=0 / max-luma=4095 / log2-max-poc-lsb=8 / vui-timing-info / vui-hrd-info / slices=1 / opt-qp-pps / opt-ref-list-length-pps / no-multi-pass-opt-rps / scenecut-bias=0.05 / no-opt-cu-delta-qp / no-aq-motion / no-hdr / no-hdr-opt / refine-level=5 / no-limit-sao
Default : Да
Forced : Нет

Аудио
Идентификатор : 2
Формат : AC-3
Формат/Информация : Audio Coding 3
Коммерческое название : Dolby Digital
Идентификатор кодека : A_AC3
Продолжительность : 2 ч. 10 м.
Вид битрейта : Постоянный
Битрейт : 448 Кбит/сек
Каналы : 6 каналов
Channel layout : L R C LFE Ls Rs
Частота : 48,0 КГц
Частота кадров : 31,250 кадров/сек (1536 SPF)
Битовая глубина : 16 бит
Метод сжатия : С потерями
Размер потока : 418 Мбайт (11%)
ServiceKind/String : Complete Main
Default : Да
Forced : Нет

Текст #1
Идентификатор : 3
Формат : UTF-8
Идентификатор кодека : S_TEXT/UTF8
Идентификатор кодека/Информация : UTF-8 Plain Text
Продолжительность : 2 ч. 2 м.
Битрейт : 74 бит/сек
ElementCount : 1317
Размер потока : 66,1 Кбайт (0%)
Заголовок : R5
Язык : Russian
Default : Нет
Forced : Нет

Текст #2
Идентификатор : 4
Формат : UTF-8
Идентификатор кодека : S_TEXT/UTF8
Идентификатор кодека/Информация : UTF-8 Plain Text
Продолжительность : 2 ч. 4 м.
Битрейт : 53 бит/сек
ElementCount : 1445
Размер потока : 48,9 Кбайт (0%)
Язык : English
Default : Нет
Forced : Нет

Меню
00:00:00.000 : en:Chapter 1
00:08:21.667 : en:Chapter 2
00:14:19.900 : en:Chapter 3
00:21:51.685 : en:Chapter 4
00:30:02.342 : en:Chapter 5
00:35:46.477 : en:Chapter 6
00:41:22.980 : en:Chapter 7
00:49:08.111 : en:Chapter 8
00:55:36.291 : en:Chapter 9
01:01:44.117 : en:Chapter 10
01:08:11.295 : en:Chapter 11
01:16:56.320 : en:Chapter 12
01:23:51.526 : en:Chapter 13
01:30:20.164 : en:Chapter 14
01:38:01.584 : en:Chapter 15
01:45:08.927 : en:Chapter 16
01:53:39.312 : en:Chapter 17
02:01:50.469 : en:Chapter 18
02:10:24.149 : en:Chapter 19
скриншот  скриншот  скриншот  скриншот  скриншот  

© Оформление by DD2D3 piratbit.org



Скачать Джек Ричер через торрент https://funkyimg.com/i/2VbV5.jpg Скачать фильм Джек Ричер через торрент бесплантно в хорошем качестве Описание: Снайпер убивает нескольких случайных прохожих. Его находят и арестовывают. Все улики указывают на него. На допросе вместо ... 10 10 10
Торрент: Зарегистрирован [2019-07-02 16:01] · скачан: 128 раз
Статус: √ проверено
Размер: 3.6 GB
Как cкачать? Как скачать Джек Ричер через торрент | qTorrent

% Раздел Тема Автор DL S | L
Фильмы (HD 720p, 1080p) (48-60 fps) [ 3.01 GB ] Джек Ричер 2: Никогда не возвращайся / Jack Reacher: Never Go Back [2016 BDRip - HEVC 1080p 12 bit 60 FPS] - [] dd2d3 Скачать
4 | 0
Фильмы 2016 [DVDrip, WEB-DLRip, HDrip] (DUB, MVO) [ 4.02 GB ] Джек Ричер 2: Никогда не возвращайся / Jack Reacher: Never Go Back [2016 BDRip-AVC] - [] 4xAVO - ExKinoRay Enigma2010 Скачать
2 | 0
Ultra HD (UHD: 2K, 4K, 8K) — видео сверхвысокой чёткости [ 45.87 GB ] Джек Ричер 2: Никогда не возвращайся / Jack Reacher: Never Go Back [2016 UHD WEBRip 2160p] - [] sheker187 Скачать
1 | 0
Фильмы (Blu-ray, BD-Remux, HDDVD) [ 23.52 GB ] Джек Ричер 2: Никогда не возвращайся / Jack Reacher: Never Go Back [2016 экранизация BDRemux 1080p] / Russian Mafia Скачать
1 | 0
Фильмы 2016 [DVDrip, WEB-DLRip, HDrip] (DUB, MVO) [ 1.41 GB ] Джек Ричер 2: Никогда не возвращайся / Jack Reacher: Never Go Back [2016 BDRip] - Twi7ter Скачать
2 | 0
Фильмы 2016 [DVDrip, WEB-DLRip, HDrip] (DUB, MVO) [ 1.46 GB ] Джек Ричер 2: Никогда не возвращайся / Jack Reacher: Never Go Back [2016 BDRip] - [] Twi7ter Скачать
1 | 0
Фильмы 2016 [DVDrip, WEB-DLRip, HDrip] (DUB, MVO) [ 2.18 GB ] Джек Ричер 2: Никогда не возвращайся / Jack Reacher: Never Go Back [2016 BDRip] - [] Twi7ter Скачать
1 | 0


>> Регистрируемся здесь <<






Отзывы и комментарии о схеме читаем и пишем здесь: ---> Отзывы и комментарии о схеме

Новые благодарочки в телеграм довольных пользователей:
скриншот   скриншот   скриншот   скриншот   скриншот

03-07-2019 08:05 Джек Ричер Скачать торрент  

Спасибо, забираю в коллекцию! А вторая часть будет?piratbit.org



03-07-2019 10:45 Джек Ричер Скачать торрент  

в процессеpiratbit.org



    Дорогой пользователь! Огромная просьба, поблагодарите релизера, оцените раздачу и оставьте свои комментарий, если Вы скачали Джек Ричер через торрент бесплатно! Внесите свою лепту в развитие PiratBit!
    Комментировать посты могут только пользователи прошедшие не сложную регистрацию
    Показать сообщения:    

    Джек Ричер через торрент
    Скачать бесплатно Джек Ричер
    Джек Ричер скачать торрент
    Джек Ричер смотреть онлайн
    Cкачать фильм Джек Ричер бесплатно
    Джек Ричер скачать торрент в хорошем качестве
    Джек Ричер смотреть онлайн бесплатно в хорошем качестве


    Вы не можете начинать темы
    Вы не можете отвечать на сообщения
    Вы не можете редактировать свои сообщения
    Вы не можете удалять свои сообщения
    Вы не можете голосовать в опросах
    Вы не можете прикреплять файлы к сообщениям
    Вы можете скачивать файлы