Достать ножи: Стеклянная луковица

MVO

Добыча

Дубляж

Уэнсдэй

1 сезон

Тор

Дубляж

13 клиническая

1 сезон

Жестокая ночь

MVO

Одни из нас

1 сезон

Deluxe

pack

Рекомендуем

30

Пиратка

ВАЖНО

ВАЖНО

Ghostwire

Пиратка

jed

RePack

nioh2

RePack

RDR2

RePack

NEED FOR SPEED™ PAYBACK

RePack

скачать торрент

Кинопоиск HD

Острые козырьки 6 сезон

6 сезон

FAR CRY 6

RePack

скачать торрент

Лицензия

скачать торрент

MVO

1

1 сезон

скачать торрент

1 сезон

скачать торрент

Лицензия

  

Стражи Галактики. Часть 2 / Guardians of the Galaxy Vol. 2 (Джеймс Ганн) [2017, фантастика, боевик, приключения, UHD BDRip 2160p] Дубляж [rus, ukr] [Лицензия]

Стражи Галактики. Часть 2 через торрент piratbit.org

Размер: 11.7 GB | Добавлен: 3 года 7 мес. назад | Торрент скачан:136 раз
Смотреть онлайн | Скачать | Поддержите нас   

03-07-2019 02:49 Стражи Галактики. Часть 2 Скачать торрент  

Стражи Галактики. Часть 2 / Guardians of the Galaxy Vol. 2««This summer, the galaxy won't save itself»»

Год выпуска: 2017
Страна: США
Жанр: фантастика, боевик, приключения, комедия
Продолжительность: 02:15:46
Перевод: Дублированный | Лицензия
Субтитры: Русские, английские, украинские
Режиссер: Джеймс Ганн
В ролях:

Крис Пратт (Peter Quill / Star-Lord), Зои Салдана (Gamora), Дэйв Батиста (Drax), Вин Дизель (Baby Groot, озвучка), Брэдли Купер (Rocket, озвучка), Майкл Рукер (Yondu), Карен Гиллан (Nebula), Пом Клементьефф (Mantis), Элизабет Дебики (Ayesha), Курт Рассел (Ego), Сильвестр Сталлоне (Stakar Ogord), Крис Салливан (Taserface)
Описание:
Все в сборе: землянин Питер Квилл (Звездный Лорд), молчаливый громила Дракс, зеленокожая наемница Гамора, живое дерево Грут и говорящий енот. Герои не изменяют себе и с завидной регулярностью продолжают попадать в немыслимые ситуации, выпутываясь из них почти без ущерба (а иногда даже с пользой) для окружающих. На этот раз им предстоит раскрыть одну из самых главных тайн во всей Галактике: кто же на самом деле отец Питера Квилла?
Рейтинг:

MPAA: PG-13 - Детям до 13 лет просмотр не желателен
Качество: UHD BDRip 2160p
Формат: MKV
Видео: HEVC HDR, 10400 Кбит/с, 3840x1604, 23.976 кадр/с
Аудио 01: Russian / Dolby Digital Audio / 5.1 / 48 kHz / 640 kbps
Аудио 02: Ukrainian / Dolby Digital Audio / 5.1 / 48 kHz / 640 kbps
Аудио 03: English / Dolby Digital Audio / 5.1 / 48 kHz / 640 kbps
Навигация по главам: есть

Complete name : Guardians.of.the.Galaxy.Vol.2.2017.2160p.UHD.HDR.x265.BT.2020.10bits.mkv
Format : Matroska
Format version : Version 4 / Version 2
File size : 11.7 GiB
Duration : 2 h 15 min
Overall bit rate : 12.3 Mb/s
Movie name : Guardians.of.the.Galaxy.Vol.2.2017.2160p.UHD.HDR.x265.BT.2020.10bits -encoded TERMiNAL
Encoded date : UTC 2017-10-16 13:29:19
Writing application : mkvmerge v17.0.0 ('Be Ur Friend') 64-bit
Writing library : libebml v1.3.5 + libmatroska v1.4.8

Video
ID : 1
Format : HEVC
Format/Info : High Efficiency Video Coding
Format profile : Main 10@L5.1@High
Codec ID : V_MPEGH/ISO/HEVC
Duration : 2 h 15 min
Bit rate : 10.4 Mb/s
Width : 3 840 pixels
Height : 1 604 pixels
Display aspect ratio : 2.40:1
Frame rate mode : Constant
Frame rate : 23.976 (24000/1001) FPS
Color space : YUV
Chroma subsampling : 4:2:0 (Type 2)
Bit depth : 10 bits
Bits/(Pixel*Frame) : 0.071
Stream size : 9.88 GiB (84%)
Title : Guardians.of.the.Galaxy.Vol.2.2017.2160p.UHD.HDR.x265.BT.2020.10bits
Writing library : x265 2.5+17-f8ae7afc1f61:[Windows][GCC 6.2.1][64 bit] 10bit
Encoding settings : cpuid=1173503 / frame-threads=2 / numa-pools=4 / wpp / no-pmode / no-pme / no-psnr / no-ssim / log-level=2 / input-csp=1 / input-res=3840x1604 / interlace=0 / total-frames=0 / level-idc=51 / high-tier=1 / uhd-bd=0 / ref=4 / no-allow-non-conformance / repeat-headers / annexb / aud / hrd / info / hash=0 / no-temporal-layers / no-open-gop / min-keyint=1 / keyint=24 / bframes=4 / b-adapt=2 / b-pyramid / bframe-bias=0 / rc-lookahead=25 / lookahead-slices=4 / scenecut=40 / no-intra-refresh / ctu=64 / min-cu-size=8 / rect / no-amp / max-tu-size=32 / tu-inter-depth=1 / tu-intra-depth=1 / limit-tu=0 / rdoq-level=2 / dynamic-rd=0.00 / no-ssim-rd / signhide / no-tskip / nr-intra=0 / nr-inter=0 / no-constrained-intra / no-strong-intra-smoothing / max-merge=3 / limit-refs=3 / limit-modes / me=3 / subme=3 / merange=57 / temporal-mvp / weightp / no-weightb / no-analyze-src-pics / deblock=-2:-2 / no-sao / no-sao-non-deblock / rd=4 / no-early-skip / rskip / no-fast-intra / no-tskip-fast / no-cu-lossless / no-b-intra / no-splitrd-skip / rdpenalty=0 / psy-rd=2.00 / psy-rdoq=1.00 / no-rd-refine / analysis-reuse-mode=0 / no-lossless / cbqpoffs=0 / crqpoffs=0 / rc=crf / crf=17.0 / qcomp=0.60 / qpstep=4 / stats-write=0 / stats-read=0 / vbv-maxrate=160000 / vbv-bufsize=160000 / vbv-init=0.9 / crf-max=0.0 / crf-min=0.0 / ipratio=1.40 / pbratio=1.30 / aq-mode=1 / aq-strength=1.00 / cutree / zone-count=0 / no-strict-cbr / qg-size=32 / no-rc-grain / qpmax=69 / qpmin=0 / no-const-vbv / sar=1 / overscan=0 / videoformat=5 / range=0 / colorprim=9 / transfer=16 / colormatrix=9 / chromaloc=1 / chromaloc-top=2 / chromaloc-bottom=2 / display-window=0 / master-display=G(13250,34500)B(7500,3000)R(34000,16000)WP(15635,16450)L(10000000,50) / max-cll=0,0 / min-luma=0 / max-luma=1023 / log2-max-poc-lsb=8 / vui-timing-info / vui-hrd-info / slices=1 / opt-qp-pps / opt-ref-list-length-pps / no-multi-pass-opt-rps / scenecut-bias=0.05 / no-opt-cu-delta-qp / no-aq-motion / hdr / hdr-opt / no-dhdr10-opt / analysis-reuse-level=5 / scale-factor=0 / refine-intra=0 / refine-inter=0 / refine-mv=0 / no-limit-sao / ctu-info=0
Default : Yes
Forced : No
Color range : Limited
Color primaries : BT.2020
Transfer characteristics : SMPTE ST 2084
Matrix coefficients : BT.2020 non-constant
Mastering display color pri : R: x=0.680000 y=0.320000, G: x=0.265000 y=0.690000, B: x=0.150000 y=0.060000, White point: x=0.312700 y=0.329000
Mastering display luminance : min: 0.0050 cd/m2, max: 1000.0000 cd/m2

Audio #1
ID : 2
Format : AC-3
Format/Info : Audio Coding 3
Format settings, Endianness : Big
Codec ID : A_AC3
Duration : 2 h 15 min
Bit rate mode : Constant
Bit rate : 640 kb/s
Channel(s) : 6 channels
Channel positions : Front: L C R, Side: L R, LFE
Sampling rate : 48.0 kHz
Frame rate : 31.250 FPS (1536 spf)
Bit depth : 16 bits
Compression mode : Lossy
Stream size : 622 MiB (5%)
Title : Дубляж - BD EUR
Language : Russian
Service kind : Complete Main
Default : Yes
Forced : No

Audio #2
ID : 3
Format : AC-3
Format/Info : Audio Coding 3
Format settings, Endianness : Big
Codec ID : A_AC3
Duration : 2 h 15 min
Bit rate mode : Constant
Bit rate : 640 kb/s
Channel(s) : 6 channels
Channel positions : Front: L C R, Side: L R, LFE
Sampling rate : 48.0 kHz
Frame rate : 31.250 FPS (1536 spf)
Bit depth : 16 bits
Compression mode : Lossy
Stream size : 622 MiB (5%)
Title : Дубляж
Language : Ukrainian
Service kind : Complete Main
Default : No
Forced : No

Audio #3
ID : 4
Format : AC-3
Format/Info : Audio Coding 3
Format settings, Endianness : Big
Codec ID : A_AC3
Duration : 2 h 15 min
Bit rate mode : Constant
Bit rate : 640 kb/s
Channel(s) : 6 channels
Channel positions : Front: L C R, Side: L R, LFE
Sampling rate : 48.0 kHz
Frame rate : 31.250 FPS (1536 spf)
Bit depth : 16 bits
Compression mode : Lossy
Stream size : 622 MiB (5%)
Title : Original
Language : English
Service kind : Complete Main
Default : No
Forced : No

Text #1
ID : 5
Format : UTF-8
Codec ID : S_TEXT/UTF8
Codec ID/Info : UTF-8 Plain Text
Duration : 2 h 6 min
Bit rate : 0 b/s
Count of elements : 14
Stream size : 486 Bytes (0%)
Title : Forced
Language : Russian
Default : Yes
Forced : Yes

Text #2
ID : 6
Format : UTF-8
Codec ID : S_TEXT/UTF8
Codec ID/Info : UTF-8 Plain Text
Duration : 2 h 14 min
Bit rate : 74 b/s
Count of elements : 1547
Stream size : 73.8 KiB (0%)
Title : full
Language : Russian
Default : No
Forced : No

Text #3
ID : 7
Format : UTF-8
Codec ID : S_TEXT/UTF8
Codec ID/Info : UTF-8 Plain Text
Duration : 2 h 15 min
Bit rate : 160 b/s
Count of elements : 2496
Stream size : 160 KiB (0%)
Title : Comments by the director James Gunn
Language : Russian
Default : No
Forced : No

Text #4
ID : 8
Format : UTF-8
Codec ID : S_TEXT/UTF8
Codec ID/Info : UTF-8 Plain Text
Duration : 2 h 14 min
Bit rate : 0 b/s
Count of elements : 14
Stream size : 499 Bytes (0%)
Title : forced (madagaskar1)
Language : Ukrainian
Default : No
Forced : No

Text #5
ID : 9
Format : UTF-8
Codec ID : S_TEXT/UTF8
Codec ID/Info : UTF-8 Plain Text
Duration : 2 h 14 min
Bit rate : 77 b/s
Count of elements : 1578
Stream size : 76.1 KiB (0%)
Title : full (vovikmar)
Language : Ukrainian
Default : No
Forced : No

Text #6
ID : 10
Format : UTF-8
Codec ID : S_TEXT/UTF8
Codec ID/Info : UTF-8 Plain Text
Duration : 2 h 14 min
Bit rate : 55 b/s
Count of elements : 1971
Stream size : 54.4 KiB (0%)
Title : SDH
Language : English
Default : No
Forced : No

Text #7
ID : 11
Format : UTF-8
Codec ID : S_TEXT/UTF8
Codec ID/Info : UTF-8 Plain Text
Duration : 2 h 14 min
Bit rate : 47 b/s
Count of elements : 1578
Stream size : 46.7 KiB (0%)
Title : full
Language : English
Default : No
Forced : No

Menu
00:00:00.000 : en:0:00:00.000
00:09:56.178 : en:0:09:56.178
00:15:10.117 : en:0:15:10.117
00:22:14.082 : en:0:22:14.082
00:32:33.701 : en:0:32:33.701
00:36:52.126 : en:0:36:52.126
00:42:29.171 : en:0:42:29.171
00:48:03.463 : en:0:48:03.463
00:53:18.904 : en:0:53:18.904
00:58:45.939 : en:0:58:45.939
01:05:52.239 : en:1:05:52.239
01:11:12.434 : en:1:11:12.434
01:18:43.593 : en:1:18:43.593
01:23:55.321 : en:1:23:55.321
01:30:24.752 : en:1:30:24.752
01:39:36.178 : en:1:39:36.178
01:47:06.211 : en:1:47:06.211
01:54:21.604 : en:1:54:21.604
01:58:53.709 : en:1:58:53.709
02:07:13.459 : en:2:07:13.459



Скачать Стражи Галактики. Часть 2 через торрент https://a.radikal.ru/a17/1907/c7/9a78e6503251.png Скачать, смотреть онлайн Стражи Галактики. Часть 2 бесплантно в хорошем качестве Описание: Все в сборе: землянин Питер Квилл (Звездный Лорд), молчаливый громила Дракс, зеленокожая наемница Гамора, живое дерево Грут и ... 9.8 10 6
Торрент: Зарегистрирован [2019-07-03 02:49] · скачан: 136 раз
Статус: √ проверено
Размер: 11.7 GB
Как cкачать? Как скачать Стражи Галактики. Часть 2 через торрент | UTorrent

% Раздел Тема Автор DL S | L
Фильмы (HD 720p, 1080p) (48-60 fps) [ 5.7 GB ] Стражи Галактики. Часть 2 / Guardians of the Galaxy Vol. 2 | Дубляж | DLRip 720p / 60 FPS slaventi-69 Скачать
1 | 0
Фильмы (Blu-ray, BD-Remux, HDDVD) [ 31.19 GB ] Стражи Галактики. Часть 2 / Guardians of the Galaxy. Vol. 2 | Лицензия | BD Remux 1080p bober100 Скачать
2 | 0
3D Фильмы [ 8.54 GB ] Стражи Галактики. Часть 2 в 3D / Guardians of the Galaxy Vol. 2 in 3D | Дубляж | 1080p, Дубляж, ( IMAX slaventi-69 Скачать
1 | 1
3D Фильмы [ 13.2 GB ] Стражи Галактики. Часть 2 3Д / Guardians of the Galaxy. Vol. 2 3D | Лицензия | 1080p, (IMAX Edition bober100 Скачать
2 | 0
Ultra HD (UHD: 2K, 4K, 8K) [ 34.29 GB ] Стражи Галактики. Часть 2 / Guardians of the Galaxy Vol. 2 | Лицензия | 2160p sheker187 Скачать
1 | 0
Ultra HD (UHD: 2K, 4K, 8K) [ 67.26 GB ] Стражи Галактики. Часть 2 / Guardians of the Galaxy. Vol. 2 | Лицензия | 2160p bober100 Скачать
1 | 0
Ultra HD (UHD: 2K, 4K, 8K) [ 63.78 GB ] Стражи Галактики. Часть 2 / Guardians of the Galaxy Vol. 2 | DUB | 2160p sheker187 Скачать
1 | 0

28-11-2019 20:33  


Отключить вcю реклaмy на сайте, в т.ч. и в плеере онлайн просмотра!

    Дорогой пользователь! Огромная просьба, поблагодарите релизера, оцените раздачу и оставьте свои комментарий, если Вы скачали Стражи Галактики. Часть 2 через торрент бесплатно!!
    Комментировать посты могут только пользователи прошедшие не сложную регистрацию
    Показать сообщения:    


    Стражи Галактики. Часть 2 через торрент
    Скачать бесплатно Стражи Галактики. Часть 2
    Стражи Галактики. Часть 2 скачать торрент
    Стражи Галактики. Часть 2 смотреть онлайн
    Cкачать фильм Стражи Галактики. Часть 2 бесплатно
    Стражи Галактики. Часть 2 скачать торрент в хорошем качестве
    Стражи Галактики. Часть 2 смотреть онлайн бесплатно в хорошем качестве
    Вы не можете начинать темы
    Вы не можете отвечать на сообщения
    Вы не можете редактировать свои сообщения
    Вы не можете удалять свои сообщения
    Вы не можете голосовать в опросах
    Вы не можете прикреплять файлы к сообщениям
    Вы можете скачивать файлы
    Стражи Галактики. Часть 2 / Guardians of the Galaxy Vol. 2 [2017, фантастика, боевик, приключения, UHD BDRip 2160p] Дубляж [rus, ukr] [Лицензия] смотреть онлайн, скачать торрент picoco.icu