Достать ножи: Стеклянная луковица

MVO

Добыча

Дубляж

Уэнсдэй

1 сезон

Тор

Дубляж

13 клиническая

1 сезон

Жестокая ночь

MVO

Одни из нас

1 сезон

Deluxe

pack

Рекомендуем

30

Пиратка

ВАЖНО

ВАЖНО

Ghostwire

Пиратка

jed

RePack

nioh2

RePack

RDR2

RePack

NEED FOR SPEED™ PAYBACK

RePack

скачать торрент

Кинопоиск HD

Острые козырьки 6 сезон

6 сезон

FAR CRY 6

RePack

скачать торрент

Лицензия

скачать торрент

MVO

1

1 сезон

скачать торрент

1 сезон

скачать торрент

Лицензия

  

Стражи Галактики. Часть 2 / Guardians of the Galaxy Vol. 2 (Джеймс Ганн) [2017, фантастика, боевик, приключения, UHD BDRip 2160p] [SDR] Дубляж [rus, ukr] [Лицензия]

Стражи Галактики. Часть 2 через торрент piratbit.org

Размер: 34.29 GB | Добавлен: 3 года 7 мес. назад | Торрент скачан:26 раз
Смотреть онлайн | Скачать | Поддержите нас   

03-07-2019 02:55 Стражи Галактики. Часть 2 Скачать торрент  

Стражи Галактики. Часть 2 / Guardians of the Galaxy Vol. 2««This summer, the galaxy won't save itself»»

Год выпуска: 2017
Страна: США
Жанр: фантастика, боевик, приключения, комедия
Продолжительность: 02:15:46
Перевод: Дублированный | Лицензия
Субтитры: Русские, английские, испанские, французские, украинские, немецкие
Режиссер: Джеймс Ганн
В ролях:

Крис Пратт (Peter Quill / Star-Lord), Зои Салдана (Gamora), Дэйв Батиста (Drax), Вин Дизель (Baby Groot, озвучка), Брэдли Купер (Rocket, озвучка), Майкл Рукер (Yondu), Карен Гиллан (Nebula), Пом Клементьефф (Mantis), Элизабет Дебики (Ayesha), Курт Рассел (Ego), Сильвестр Сталлоне (Stakar Ogord), Крис Салливан (Taserface)
Описание:
Все в сборе: землянин Питер Квилл (Звездный Лорд), молчаливый громила Дракс, зеленокожая наемница Гамора, живое дерево Грут и говорящий енот. Герои не изменяют себе и с завидной регулярностью продолжают попадать в немыслимые ситуации, выпутываясь из них почти без ущерба (а иногда даже с пользой) для окружающих. На этот раз им предстоит раскрыть одну из самых главных тайн во всей Галактике: кто же на самом деле отец Питера Квилла?
Рейтинг:

MPAA: PG-13 - Детям до 13 лет просмотр не желателен
Качество: UHD BDRip 2160p | SDR
Формат: MKV
Видео: MPEG-4 AVC, 22800 Кбит/с, 3840x1606, 23.976 кадр/с
Аудио 1: Русский / AC3 / 48 KHz / 5.1 ch / 640 Kbps (Дубляж - BD CEE)
Аудио 2: Украинский / AC3 / 48 KHz / 5.1 ch / 640 Kbps (Дубляж)
Аудио 3: Английский / AC3 / 48 KHz / 5.1 ch / 640 Kbps (Original)
Аудио 4: Английский Atmos / TrueHD / 7.1 / 48 kHz / 7508 kbps / 16 bit (Original)
Аудио 5: Английский DTS-HD MA / 7.1 / 48 kHz / 3840 kbps / 16 bit (Original)
Навигация по главам: есть

Общее
Уникальный идентификатор : 226001206596785222652281432942264087189 (0xAA063FC6ABF428D58B46090ACA2E7295)
Полное имя : D:\Новая папкаVid\Новая_Мои раздачи\Guardians.of.the.Galaxy.Vol.2.2017.2160p.BluRay.x264.8bit.SDR.8bit.UHD.BDRip.x264.Master5.mkv
Формат : Matroska
Версия формата : Version 4 / Version 2
Размер файла : 34,3 Гбайт
Продолжительность : 2 ч. 15 м.
Режим общего битрейта : Переменный
Общий поток : 36,2 Мбит/сек
Название фильма : Guardians.of.the.Galaxy.Vol.2.2017.2160p.BluRay.x264.8bit.SDR.8bit.UHD.BDRip.x264.Master5
Дата кодирования : UTC 2017-10-11 14:54:55
Программа кодирования : mkvmerge v8.1.0 ('Psychedelic Postcard') 32bit
Библиотека кодирования : libebml v1.3.1 + libmatroska v1.4.2
Обложка : Yes
Attachments : cover.jpg / cover_land.jpg / small_cover.jpg / small_cover_land.jpg / cover.jpg

Видео
Идентификатор : 1
Формат : AVC
Формат/Информация : Advanced Video Codec
Профиль формата : High@L5.1
Параметр CABAC формата : Да
Параметр ReFrames формата : 5 кадров
Идентификатор кодека : V_MPEG4/ISO/AVC
Продолжительность : 2 ч. 15 м.
Битрейт : 22,8 Мбит/сек
Ширина : 3840 пикселей
Высота : 1606 пикселей
Соотношение сторон : 2,40:1
Режим частоты кадров : Постоянный
Частота кадров : 23,976 (24000/1001) кадра/сек
Цветовое пространство : YUV
Субдискретизация насыщенности : 4:2:0
Битовая глубина : 8 бит
Тип развёртки : Прогрессивная
Бит/(Пиксели*Кадры) : 0.154
Размер потока : 21,6 Гбайт (63%)
Заголовок : Guardians.of.the.Galaxy.Vol.2.2017.2160p.BluRay.x264.8bit.SDR.8bit.UHD.BDRip.x264.Master5
Библиотека кодирования : x264 core 148 r2748 97eaef2
Настройки программы : cabac=1 / ref=5 / deblock=1:-1:-1 / analyse=0x3:0x113 / me=umh / subme=10 / psy=1 / psy_rd=1.00:0.15 / mixed_ref=1 / me_range=48 / chroma_me=1 / trellis=2 / 8x8dct=1 / cqm=0 / deadzone=21,11 / fast_pskip=1 / chroma_qp_offset=-3 / threads=50 / lookahead_threads=4 / sliced_threads=0 / nr=0 / decimate=0 / interlaced=0 / bluray_compat=0 / constrained_intra=0 / bframes=3 / b_pyramid=2 / b_adapt=2 / b_bias=0 / direct=3 / weightb=1 / open_gop=0 / weightp=2 / keyint=250 / keyint_min=23 / scenecut=40 / intra_refresh=0 / rc_lookahead=50 / rc=crf / mbtree=1 / crf=18.0 / qcomp=0.60 / qpmin=0 / qpmax=69 / qpstep=4 / ip_ratio=1.40 / aq=1:1.00
Язык : English
Default : Да
Forced : Нет

Аудио #1
Идентификатор : 2
Формат : Atmos / TrueHD
Идентификатор кодека : A_TRUEHD
Продолжительность : 2 ч. 15 м.
Вид битрейта : Переменный
Битрейт : 7508 Кбит/сек
Максимальный битрейт : 11,3 Мбит/сек
Каналы : Object Based / 8 каналов
Расположение каналов : Object Based / Front: L C R, Side: L R, Back: L R, LFE
Частота : / 48,0 КГц
Частота кадров : 1200,000 кадров/сек (40 spf)
Метод сжатия : Без потерь
Задержка видео : 32 мс.
Размер потока : 7,12 Гбайт (21%)
Язык : English
Default : Да
Forced : Нет

Аудио #2
Идентификатор : 3
Формат : DTS
Формат/Информация : Digital Theater Systems
Профиль формата : MA / Core
Режим : 16
Параметр Endianness формата : Big
Идентификатор кодека : A_DTS
Продолжительность : 2 ч. 15 м.
Вид битрейта : Переменный / Постоянный
Битрейт : 3840 Кбит/сек / 1509 Кбит/сек
Каналы : 8 каналов / 6 каналов
Расположение каналов : Front: L C R, Side: L R, Back: L R, LFE / Front: L C R, Side: L R, LFE
Частота : 48,0 КГц
Частота кадров : 93,750 кадра/сек (512 spf)
Битовая глубина : 24 бит
Метод сжатия : Без потерь / Lossy
Размер потока : 3,64 Гбайт (11%)
Язык : English
Default : Нет
Forced : Нет

Аудио #3
Идентификатор : 8
Формат : AC-3
Формат/Информация : Audio Coding 3
Расширение режима : CM (complete main)
Параметр Endianness формата : Big
Идентификатор кодека : A_AC3
Продолжительность : 2 ч. 15 м.
Вид битрейта : Постоянный
Битрейт : 640 Кбит/сек
Каналы : 6 каналов
Расположение каналов : Front: L C R, Side: L R, LFE
Частота : 48,0 КГц
Частота кадров : 31,250 кадров/сек (1536 spf)
Метод сжатия : С потерями
Размер потока : 622 Мбайт (2%)
Заголовок : Дубляж - BD CEE
Язык : Russian
Default : Нет
Forced : Нет

Аудио #4
Идентификатор : 9
Формат : AC-3
Формат/Информация : Audio Coding 3
Расширение режима : CM (complete main)
Параметр Endianness формата : Big
Идентификатор кодека : A_AC3
Продолжительность : 2 ч. 15 м.
Вид битрейта : Постоянный
Битрейт : 640 Кбит/сек
Каналы : 6 каналов
Расположение каналов : Front: L C R, Side: L R, LFE
Частота : 48,0 КГц
Частота кадров : 31,250 кадров/сек (1536 spf)
Метод сжатия : С потерями
Размер потока : 622 Мбайт (2%)
Заголовок : Дубляж
Язык : Ukrainian
Default : Нет
Forced : Нет

Аудио #5
Идентификатор : 10
Формат : AC-3
Формат/Информация : Audio Coding 3
Расширение режима : CM (complete main)
Параметр Endianness формата : Big
Идентификатор кодека : A_AC3
Продолжительность : 2 ч. 15 м.
Вид битрейта : Постоянный
Битрейт : 640 Кбит/сек
Каналы : 6 каналов
Расположение каналов : Front: L C R, Side: L R, LFE
Частота : 48,0 КГц
Частота кадров : 31,250 кадров/сек (1536 spf)
Метод сжатия : С потерями
Размер потока : 622 Мбайт (2%)
Заголовок : Original
Язык : English
Default : Нет
Forced : Нет

Текст #1
Идентификатор : 4
Формат : PGS
Режим смешивания : zlib
Идентификатор кодека : S_HDMV/PGS
Идентификатор кодека/Информация : Picture based subtitle format used on BDs/HD-DVDs
Продолжительность : 2 ч. 14 м.
Битрейт : 9355 бит/сек
Count of elements : 3236
Размер потока : 9,02 Мбайт (0%)
Заголовок : French-PGS
Язык : French
Default : Нет
Forced : Нет

Текст #2
Идентификатор : 5
Формат : PGS
Режим смешивания : zlib
Идентификатор кодека : S_HDMV/PGS
Идентификатор кодека/Информация : Picture based subtitle format used on BDs/HD-DVDs
Продолжительность : 2 ч. 14 м.
Битрейт : 9397 бит/сек
Count of elements : 3208
Размер потока : 9,06 Мбайт (0%)
Заголовок : Spanish-PGS
Язык : Spanish
Default : Нет
Forced : Нет

Текст #3
Идентификатор : 6
Формат : PGS
Режим смешивания : zlib
Идентификатор кодека : S_HDMV/PGS
Идентификатор кодека/Информация : Picture based subtitle format used on BDs/HD-DVDs
Продолжительность : 2 ч. 14 м.
Битрейт : 8291 бит/сек
Count of elements : 2954
Размер потока : 7,99 Мбайт (0%)
Заголовок : French-PGS
Язык : French
Default : Нет
Forced : Нет

Текст #4
Идентификатор : 7
Формат : PGS
Режим смешивания : zlib
Идентификатор кодека : S_HDMV/PGS
Идентификатор кодека/Информация : Picture based subtitle format used on BDs/HD-DVDs
Продолжительность : 2 ч. 14 м.
Битрейт : 9602 бит/сек
Count of elements : 3070
Размер потока : 9,26 Мбайт (0%)
Заголовок : German-PGS
Язык : German
Default : Нет
Forced : Нет

Текст #5
Идентификатор : 11
Формат : UTF-8
Идентификатор кодека : S_TEXT/UTF8
Идентификатор кодека/Информация : UTF-8 Plain Text
Продолжительность : 2 ч. 6 м.
Битрейт : 0 бит/сек
Count of elements : 14
Размер потока : 486 байт (0%)
Заголовок : Форсированные
Язык : Russian
Default : Да
Forced : Нет

Текст #6
Идентификатор : 12
Формат : UTF-8
Идентификатор кодека : S_TEXT/UTF8
Идентификатор кодека/Информация : UTF-8 Plain Text
Продолжительность : 2 ч. 14 м.
Битрейт : 74 бит/сек
Count of elements : 1547
Размер потока : 73,8 Кбайт (0%)
Заголовок : Полные
Язык : Russian
Default : Нет
Forced : Нет

Текст #7
Идентификатор : 13
Формат : UTF-8
Идентификатор кодека : S_TEXT/UTF8
Идентификатор кодека/Информация : UTF-8 Plain Text
Продолжительность : 2 ч. 15 м.
Битрейт : 160 бит/сек
Count of elements : 2496
Размер потока : 160 Кбайт (0%)
Заголовок : Коментарии режиссёра Джеймса Ганна
Язык : Russian
Default : Нет
Forced : Нет

Текст #8
Идентификатор : 14
Формат : UTF-8
Идентификатор кодека : S_TEXT/UTF8
Идентификатор кодека/Информация : UTF-8 Plain Text
Продолжительность : 2 ч. 14 м.
Битрейт : 0 бит/сек
Count of elements : 14
Размер потока : 499 байт (0%)
Заголовок : Форсированные
Язык : Ukrainian
Default : Нет
Forced : Нет

Текст #9
Идентификатор : 15
Формат : UTF-8
Идентификатор кодека : S_TEXT/UTF8
Идентификатор кодека/Информация : UTF-8 Plain Text
Продолжительность : 2 ч. 14 м.
Битрейт : 77 бит/сек
Count of elements : 1578
Размер потока : 76,1 Кбайт (0%)
Заголовок : Полные
Язык : Ukrainian
Default : Нет
Forced : Нет

Текст #10
Идентификатор : 16
Формат : UTF-8
Идентификатор кодека : S_TEXT/UTF8
Идентификатор кодека/Информация : UTF-8 Plain Text
Продолжительность : 2 ч. 14 м.
Битрейт : 47 бит/сек
Count of elements : 1578
Размер потока : 46,7 Кбайт (0%)
Заголовок : Full
Язык : English
Default : Нет
Forced : Нет

Текст #11
Идентификатор : 17
Формат : UTF-8
Идентификатор кодека : S_TEXT/UTF8
Идентификатор кодека/Информация : UTF-8 Plain Text
Продолжительность : 2 ч. 14 м.
Битрейт : 55 бит/сек
Count of elements : 1971
Размер потока : 54,4 Кбайт (0%)
Заголовок : SDH
Язык : English
Default : Нет
Forced : Нет

Меню
00:00:00.000 : en:Chapter 1
00:09:56.178 : en:Chapter 2
00:15:10.117 : en:Chapter 3
00:22:14.082 : en:Chapter 4
00:32:33.701 : en:Chapter 5
00:36:52.126 : en:Chapter 6
00:42:29.171 : en:Chapter 7
00:48:03.463 : en:Chapter 8
00:53:18.904 : en:Chapter 9
00:58:45.939 : en:Chapter 10
01:05:52.239 : en:Chapter 11
01:11:12.434 : en:Chapter 12
01:18:43.593 : en:Chapter 13
01:23:55.321 : en:Chapter 14
01:30:24.752 : en:Chapter 15
01:39:36.178 : en:Chapter 16
01:47:06.211 : en:Chapter 17
01:54:21.604 : en:Chapter 18
01:58:53.709 : en:Chapter 19
02:07:13.459 : en:Chapter 20



Скачать Стражи Галактики. Часть 2 через торрент https://a.radikal.ru/a21/1907/39/fbb68f3a1d9c.png Скачать, смотреть онлайн Стражи Галактики. Часть 2 бесплантно в хорошем качестве Описание: Все в сборе: землянин Питер Квилл (Звездный Лорд), молчаливый громила Дракс, зеленокожая наемница Гамора, живое дерево Грут и ... 10 10 5
Info! Золотая раздача, скачанное не засчитывается.
Торрент: Зарегистрирован [2019-07-03 02:55] · скачан: 26 раз
Статус: √ проверено
Размер: 34.29 GB
Как cкачать? Как скачать Стражи Галактики. Часть 2 через торрент | UTorrent

% Раздел Тема Автор DL S | L
Фильмы (HD 720p, 1080p) (48-60 fps) [ 5.7 GB ] Стражи Галактики. Часть 2 / Guardians of the Galaxy Vol. 2 | Дубляж | DLRip 720p / 60 FPS slaventi-69 Скачать
2 | 1
Фильмы (Blu-ray, BD-Remux, HDDVD) [ 31.19 GB ] Стражи Галактики. Часть 2 / Guardians of the Galaxy. Vol. 2 | Лицензия | BD Remux 1080p bober100 Скачать
1 | 0
3D Фильмы [ 8.54 GB ] Стражи Галактики. Часть 2 в 3D / Guardians of the Galaxy Vol. 2 in 3D | Дубляж | 1080p, Дубляж, ( IMAX slaventi-69 Скачать
1 | 0
3D Фильмы [ 13.2 GB ] Стражи Галактики. Часть 2 3Д / Guardians of the Galaxy. Vol. 2 3D | Лицензия | 1080p, (IMAX Edition bober100 Скачать
1 | 0
Ultra HD (UHD: 2K, 4K, 8K) [ 11.7 GB ] Стражи Галактики. Часть 2 / Guardians of the Galaxy Vol. 2 | Лицензия | 2160p sheker187 Скачать
1 | 0
Ultra HD (UHD: 2K, 4K, 8K) [ 67.26 GB ] Стражи Галактики. Часть 2 / Guardians of the Galaxy. Vol. 2 | Лицензия | 2160p bober100 Скачать
1 | 0
Ultra HD (UHD: 2K, 4K, 8K) [ 63.78 GB ] Стражи Галактики. Часть 2 / Guardians of the Galaxy Vol. 2 | DUB | 2160p sheker187 Скачать
1 | 0

28-11-2019 20:33  


Отключить вcю реклaмy на сайте, в т.ч. и в плеере онлайн просмотра!

    Дорогой пользователь! Огромная просьба, поблагодарите релизера, оцените раздачу и оставьте свои комментарий, если Вы скачали Стражи Галактики. Часть 2 через торрент бесплатно!!
    Комментировать посты могут только пользователи прошедшие не сложную регистрацию
    Показать сообщения:    


    Стражи Галактики. Часть 2 через торрент
    Скачать бесплатно Стражи Галактики. Часть 2
    Стражи Галактики. Часть 2 скачать торрент
    Стражи Галактики. Часть 2 смотреть онлайн
    Cкачать фильм Стражи Галактики. Часть 2 бесплатно
    Стражи Галактики. Часть 2 скачать торрент в хорошем качестве
    Стражи Галактики. Часть 2 смотреть онлайн бесплатно в хорошем качестве
    Вы не можете начинать темы
    Вы не можете отвечать на сообщения
    Вы не можете редактировать свои сообщения
    Вы не можете удалять свои сообщения
    Вы не можете голосовать в опросах
    Вы не можете прикреплять файлы к сообщениям
    Вы можете скачивать файлы
    Стражи Галактики. Часть 2 / Guardians of the Galaxy Vol. 2 [2017, фантастика, боевик, приключения, UHD BDRip 2160p] [SDR] Дубляж [rus, ukr] [Лицензия] смотреть онлайн, скачать торрент picoco.icu