Достать ножи: Стеклянная луковица

MVO

Добыча

Дубляж

Уэнсдэй

1 сезон

Тор

Дубляж

13 клиническая

1 сезон

Жестокая ночь

MVO

Одни из нас

1 сезон

Deluxe

pack

Рекомендуем

30

Пиратка

ВАЖНО

ВАЖНО

Ghostwire

Пиратка

jed

RePack

nioh2

RePack

RDR2

RePack

NEED FOR SPEED™ PAYBACK

RePack

скачать торрент

Кинопоиск HD

Острые козырьки 6 сезон

6 сезон

FAR CRY 6

RePack

скачать торрент

Лицензия

скачать торрент

MVO

1

1 сезон

скачать торрент

1 сезон

скачать торрент

Лицензия

  

Капитан Марвел / Captain Marvel (Анна Боден, Райан Флек) [2019, фантастика, боевик, приключения, UHD BDRip 2160p] [SDR] Дубляж [Лицензия]

Капитан Марвел через торрент piratbit.org

Размер: 13.93 GB | Добавлен: 3 года 6 мес. назад | Торрент скачан:121 раз
Смотреть онлайн | Скачать | Поддержите нас   

04-07-2019 12:17 Капитан Марвел Скачать торрент  

Капитан Марвел / Captain Marvel««Быстрее. Выше. Сильнее»»

Год выпуска: 2019
Страна: США
Жанр: фантастика, боевик, приключения
Продолжительность: 02:03:40
Перевод: Дублированный | Лицензия
Субтитры: Русские (полные, форсированные, SDH), английские
Режиссер: Анна Боден, Райан Флек
В ролях:

Бри Ларсон (Carol Danvers / Vers / Captain Marvel), Сэмюэл Л. Джексон (Nick Fury), Бен Мендельсон (Talos / Keller), Джуд Лоу (Yon-Rogg), Аннетт Бенинг (Supreme Intelligence / Dr. Wendy Lawson), Лашана Линч (Maria Rambeau), Кларк Грегг (Agent Coulson), Рюн Темт (Bron-Char), Джемма Чан (Minn-Erva), Альхенис Перес Сото (Att-Lass), Джимон Хонсу (Korath), Ли Пейс (Ronan)
Описание:
После столкновения с враждующими инопланетными расами, пилот военно-воздушных сил Кэрол Дэнверс обретает суперсилу и становится неуязвимой. Героине предстоит совладать со своими новыми способностями, чтобы противостоять могущественному врагу.
Рейтинг:

MPAA: PG-13 - Детям до 13 лет просмотр не желателен
Качество: UHD BDRip 2160p | SDR
Формат: MKV
Видео: MPEG-4 AVC, 14.8 Мбит/с, 3840x1608, 23.976 кадр/с, 8 бит
Аудио: 48 kHz, AC3, 5.1, 640 Kbps | Дублированный | RUS | Лицензия
Аудио: 48 kHz, AC3, 5.1, 640 Kbps | Оригинал | ENG |
Навигация по главам: есть
Общее
Уникальный идентификатор : 229383535647570280542341224291535285945 (0xAC91A9792E0871C097C73B4FE469EEB9)
Полное имя : D:\Мои раздачи\Передел\Captain.Marvel.2019.2160p.BDRip.x264.8bit.SDR.Master5.mkv
Формат : Matroska
Версия формата : Version 4 / Version 2
Размер файла : 13,9 Гбайт
Продолжительность : 2 ч. 3 м.
Общий поток : 16,1 Мбит/сек
Название фильма : Captain.Marvel.2019.2160p.BDRip.x264.8bit.SDR.Master5
Дата кодирования : UTC 2019-07-04 10:04:11
Программа кодирования : mkvmerge v7.9.0 ('Birds') 64bit
Библиотека кодирования : libebml v1.3.1 + libmatroska v1.4.2
Обложка : Yes
Attachments : small_cover_land.jpg / cover.jpg / cover_land.jpg / small_cover.jpg

Видео
Идентификатор : 1
Формат : AVC
Формат/Информация : Advanced Video Codec
Профиль формата : High@L5.1
Настройки формата : CABAC / 5 Ref Frames
Параметр CABAC формата : Да
Параметр RefFrames формата : 5 кадров
Идентификатор кодека : V_MPEG4/ISO/AVC
Продолжительность : 2 ч. 3 м.
Битрейт : 14,8 Мбит/сек
Ширина : 3840 пикселей
Высота : 1608 пикселей
Соотношение сторон : 2,40:1
Режим частоты кадров : Постоянный
Частота кадров : 23,976 (24000/1001) кадра/сек
Цветовое пространство : YUV
Субдискретизация насыщенности : 4:2:0
Битовая глубина : 8 бит
Тип развёртки : Прогрессивная
Бит/(Пиксели*Кадры) : 0.100
Размер потока : 12,8 Гбайт (92%)
Заголовок : Captain.Marvel.2019.2160p.BDRip.x264.8bit.SDR.Master5
Библиотека кодирования : x264 core 157 r2935 545de2f
Настройки программы : cabac=1 / ref=5 / deblock=1:-1:-1 / analyse=0x3:0x113 / me=umh / subme=10 / psy=1 / psy_rd=1.00:0.15 / mixed_ref=1 / me_range=48 / chroma_me=1 / trellis=2 / 8x8dct=1 / cqm=0 / deadzone=21,11 / fast_pskip=1 / chroma_qp_offset=-3 / threads=50 / lookahead_threads=4 / sliced_threads=0 / nr=0 / decimate=0 / interlaced=0 / bluray_compat=0 / constrained_intra=0 / bframes=3 / b_pyramid=2 / b_adapt=2 / b_bias=0 / direct=3 / weightb=1 / open_gop=0 / weightp=2 / keyint=250 / keyint_min=23 / scenecut=40 / intra_refresh=0 / rc_lookahead=50 / rc=crf / mbtree=1 / crf=18.0 / qcomp=0.60 / qpmin=0 / qpmax=69 / qpstep=4 / ip_ratio=1.40 / aq=1:1.00
Default : Да
Forced : Нет

Аудио #1
Идентификатор : 2
Формат : AC-3
Формат/Информация : Audio Coding 3
Идентификатор кодека : A_AC3
Продолжительность : 2 ч. 3 м.
Вид битрейта : Постоянный
Битрейт : 640 Кбит/сек
Каналы : 6 каналов
Расположение каналов : Front: L C R, Side: L R, LFE
Частота : 48,0 КГц
Частота кадров : 31,250 кадров/сек (1536 SPF)
Битовая глубина : 16 бит
Метод сжатия : С потерями
Размер потока : 566 Мбайт (4%)
Заголовок : Дубляж License
Язык : Russian
ServiceKind/String : Complete Main
Default : Да
Forced : Да

Аудио #2
Идентификатор : 3
Формат : AC-3
Формат/Информация : Audio Coding 3
Идентификатор кодека : A_AC3
Продолжительность : 2 ч. 3 м.
Вид битрейта : Постоянный
Битрейт : 640 Кбит/сек
Каналы : 6 каналов
Расположение каналов : Front: L C R, Side: L R, LFE
Частота : 48,0 КГц
Частота кадров : 31,250 кадров/сек (1536 SPF)
Битовая глубина : 16 бит
Метод сжатия : С потерями
Размер потока : 566 Мбайт (4%)
Заголовок : Original
Язык : English
ServiceKind/String : Complete Main
Default : Нет
Forced : Нет

Текст #1
Идентификатор : 4
Формат : UTF-8
Идентификатор кодека : S_TEXT/UTF8
Идентификатор кодека/Информация : UTF-8 Plain Text
Продолжительность : 1 ч. 55 м.
Битрейт : 1 бит/сек
ElementCount : 17
Размер потока : 937 байт (0%)
Заголовок : Forced
Язык : Russian
Default : Да
Forced : Да

Текст #2
Идентификатор : 5
Формат : UTF-8
Идентификатор кодека : S_TEXT/UTF8
Идентификатор кодека/Информация : UTF-8 Plain Text
Продолжительность : 2 ч. 2 м.
Битрейт : 65 бит/сек
ElementCount : 1314
Размер потока : 58,8 Кбайт (0%)
Заголовок : Full
Язык : Russian
Default : Нет
Forced : Нет

Текст #3
Идентификатор : 6
Формат : UTF-8
Идентификатор кодека : S_TEXT/UTF8
Идентификатор кодека/Информация : UTF-8 Plain Text
Продолжительность : 2 ч. 2 м.
Битрейт : 77 бит/сек
ElementCount : 1637
Размер потока : 69,2 Кбайт (0%)
Заголовок : SDH
Язык : Russian
Default : Нет
Forced : Нет

Текст #4
Идентификатор : 7
Формат : UTF-8
Идентификатор кодека : S_TEXT/UTF8
Идентификатор кодека/Информация : UTF-8 Plain Text
Продолжительность : 1 ч. 53 м.
Битрейт : 47 бит/сек
ElementCount : 1422
Размер потока : 39,6 Кбайт (0%)
Заголовок : Full
Язык : English
Default : Нет
Forced : Нет

Текст #5
Идентификатор : 8
Формат : UTF-8
Идентификатор кодека : S_TEXT/UTF8
Идентификатор кодека/Информация : UTF-8 Plain Text
Продолжительность : 2 ч. 2 м.
Битрейт : 50 бит/сек
ElementCount : 1668
Размер потока : 45,1 Кбайт (0%)
Заголовок : SDH
Язык : English
Default : Нет
Forced : Нет

Текст #6
Идентификатор : 9
Формат : UTF-8
Идентификатор кодека : S_TEXT/UTF8
Идентификатор кодека/Информация : UTF-8 Plain Text
Продолжительность : 2 ч. 2 м.
Битрейт : 67 бит/сек
ElementCount : 1665
Размер потока : 60,9 Кбайт (0%)
Заголовок : SDH Colored
Язык : English
Default : Нет
Forced : Нет

Меню
00:00:00.000 : en:"Dreams Again"
00:06:51.286 : en:Search And Rescue
00:14:07.055 : en:Memory Manipulation
00:23:17.438 : en:Planet C-53
00:29:37.192 : en:Subway Skrull
00:35:06.938 : en:Searching For Answers
00:44:07.603 : en:Project P.E.G.A.S.U.S.
00:50:42.665 : en:Backup Arrives
00:56:17.791 : en:Reunited
01:03:01.987 : en:Revelation
01:11:16.564 : en:"You Are Carol Danvers"
01:17:48.330 : en:Skrull Survivors
01:27:02.217 : en:"Finally Set Free"
01:33:21.596 : en:Starforce Battle
01:40:50.962 : en:Ronan's Offensive
01:46:24.253 : en:Taking The Initiative
01:52:49.054 : en:End Credits



Скачать Капитан Марвел через торрент https://b.radikal.ru/b24/1906/54/d896a45bfcef.png Скачать, смотреть онлайн Капитан Марвел бесплантно в хорошем качестве Описание: После столкновения с враждующими инопланетными расами, пилот военно-воздушных сил Кэрол Дэнверс обретает суперсилу и становится ... 10 10 6
Торрент: Зарегистрирован [2019-07-04 12:17] · скачан: 121 раз
Статус: √ проверено
Размер: 13.93 GB
Как cкачать? Как скачать Капитан Марвел через торрент | UTorrent

% Раздел Тема Автор DL S | L
3D Видео (48-60 fps) [ 4.32 GB ] Капитан Марвел в 3D / Captain Marvel in 3D | Лицензия | 720p / 60 FPS Лицензия slaventi-69 Скачать
1 | 0
3D Фильмы [ 8.17 GB ] Капитан Марвел в 3D / Captain Marvel in 3D | Лицензия | 1080p, Дубляж Лицензия slaventi-69 Скачать
1 | 0
Фильмы (HD 720p, 1080p) (48-60 fps) [ 5.1 GB ] Капитан Марвел / Captain Marvel | Дубляж | DLRip 720p / 60 FPS slaventi-69 Скачать
3 | 0
Фильмы 2019-2020 [DVDrip, WEB-DLRip, HDrip] (DUB, MVO) [ 2.27 GB ] Капитан Марвел / Captain Marvel | MVO | BDRip-AVC, Dub, MVO morfyi Скачать
1 | 0
Фильмы 2019-2020 [DVDrip, WEB-DLRip, HDrip] (DUB, MVO) [ 2.18 GB ] Капитан Марвел / Captain Marvel | Лицензия | BDRip Twi7ter Скачать
8 | 0
Фильмы 2019-2020 [DVDrip, WEB-DLRip, HDrip] (DUB, MVO) [ 1.45 GB ] Капитан Марвел / Captain Marvel | | DLRip killermax2013 Скачать
2 | 0
Фильмы (Blu-ray, BD-Remux, HDDVD) [ 40.51 GB ] Капитан Марвел / Captain Marvel | Лицензия | 1080p sheker187 Скачать
1 | 0

28-11-2019 20:33  


Отключить вcю реклaмy на сайте, в т.ч. и в плеере онлайн просмотра!

    Дорогой пользователь! Огромная просьба, поблагодарите релизера, оцените раздачу и оставьте свои комментарий, если Вы скачали Капитан Марвел через торрент бесплатно!!
    Комментировать посты могут только пользователи прошедшие не сложную регистрацию
    Показать сообщения:    


    Капитан Марвел через торрент
    Скачать бесплатно Капитан Марвел
    Капитан Марвел скачать торрент
    Капитан Марвел смотреть онлайн
    Cкачать фильм Капитан Марвел бесплатно
    Капитан Марвел скачать торрент в хорошем качестве
    Капитан Марвел смотреть онлайн бесплатно в хорошем качестве
    Вы не можете начинать темы
    Вы не можете отвечать на сообщения
    Вы не можете редактировать свои сообщения
    Вы не можете удалять свои сообщения
    Вы не можете голосовать в опросах
    Вы не можете прикреплять файлы к сообщениям
    Вы можете скачивать файлы
    Капитан Марвел / Captain Marvel [2019, фантастика, боевик, приключения, UHD BDRip 2160p] [SDR] Дубляж [Лицензия] смотреть онлайн, скачать торрент picoco.icu