Мега распродажа FORZA HORIZON 4 ULTIMATE+ВСЕ DLC+ОНЛАЙН всего за 499р. 349 руб. (супер цена). Внимание количество ограничено!!!

iTunes

1+1

iTunes

мы

iTunes

1

1 сезон

Чернобыль

1 сезон

Ральф против интернета

Лицензия

ПШазам

8 сезон

Игра престолов

Лицензия

30
pack

ВАЖНО

!!Акция!!

Alien_RageХит недели

RePack

Resident Evil 21

ИГРА 18+

pack

RePack

Metro:Exodus

!!Акция!!

Alien_Rage

RePack

fifa19

RePack

Assassins Creed: Odyssey

RePack

NEED FOR SPEED™ PAYBACK

3 сезон

9 сезон

Бесстыжие 9 сезон

Все сериалы

все сериалы на PB.wtf

RePack

FAR CRY 5
Ребята, катастрофически не хватает 2730р. для оплаты серверов за ИЮНЬ (всвязи с блокировками трафик упал в 3 раза), 1-2р., выручайте.
  

Красавица и чудовище / Beauty and the Beast (Гари Труздейл, Кирк Уайз) [1991 г., мультфильм, мюзикл, фэнтези, мелодрама, семейный, BDRemux 1080p] [Diamond Edition] DUB + MVO + DVO + 3xAVO - KORSAR piratbit.org

Красавица и чудовище через торрент piratbit.org

Раздают: 4 [ 4 KB/s ]
Размер: 26.2 GB | Добавлен: 18 д. назад | Торрент скачан:10 раз
Скачать  

04-07-2019 15:30 Красавица и чудовище Скачать торрент  

Название: Красавица и чудовище
Оригинальное название: Beauty and the Beast
Год выпуска: 1991
Жанр: Мультфильм, мюзикл, фэнтези, мелодрама, семейный
Выпущено: США, Silver Screen Partners IV, Walt Disney Feature Animation, Walt Disney Pictures
Продолжительность: 01:31:52
Перевод: Дублированный, профессиональный многоголосый, профессиональный двухголосый, авторский одноголосый
Режиссер: Гари Труздейл, Кирк Уайз
В ролях: Пейдж О`Хара, Робби Бенсон, Ричард Уайт, Джерри Орбах, Дэвид Огден Стайерз, Анджела Лэнсбери, Брэдли Пирс, Рекс Эверхарт, Джесси Корти, Хэл Смит

Описание: Фильм приглашает в зачарованный замок, скрытый в чаще темного волшебного леса. Его хозяин ужасное Чудовище, которого все боятся и ненавидят. Лишь самая прекрасная и смелая девушка в мире по имени Белль способна разгадать тайну страшного, а на самом деле, очень несчастного хозяина замка и разрушить чары, обрекшие его на вечное пребывание в шкуре жуткого зверя. Только тот, кто растопит лед в сердце чудовища и сможет полюбить его таким, какой он есть, сможет вернуть ему человеческий облик, но, чтобы спасти хозяина зачарованного замка, Белль придется выступить против всех: ведь жители ее деревни, подстрекаемые злобным охотником Гастоном, хотят погубить гордое и доброе Чудовище.

rating

Качество: BDRemux 1080p
Контейнер: MKV
Видео: MPEG-4 AVC, 1920x1080, 23968 kbps, 23.976 fps
Аудио 1: Russian: 48 kHz, AC3 Audio, 5.1 ch, 384 kbps - DUB, R5
Аудио 2: Russian: 48 kHz, AC3 Audio, 5.1 ch, 384 kbps - MVO
Аудио 3: Russian: 48 kHz, DTS-HD MA, 7.1 ch, 5320 kbps - DVO, П. Гланц и И. Королева
Аудио 4: Russian: 48 kHz, DTS Audio, 5.1 ch, 1510 kbps - AVO, А. Гаврилов
Аудио 5: Russian: 48 kHz, DTS Audio, 5.1 ch, 1510 kbps - AVO, Ю. Живов
Аудио 6: Russian: 48 kHz, DTS Audio, 5.1 ch, 1510 kbps - AVO, А. Михалев
Аудио 7: Ukrainian: 48 kHz, AC3 Audio, 5.1 ch, 640 kbps - DUB
Аудио 8: English: 48 kHz, DTS-HD MA, 7.1 ch, 5789 kbps - Оригинал
Субтитры: Русские, украинские, английские
Навигация по главам: Есть
скриншот  скриншот  скриншот  скриншот  

скриншот  скриншот  скриншот  скриншот  
Общее
Уникальный идентификатор : 210315758526566378070948207176509507420 (0x9E39577A74C7D46DA631C73FDCEB475C)
Полное имя : Beauty.and.the.Beast.1991.BDRemux.1080p.KORSAR.mkv
Формат : Matroska
Версия формата : Version 4 / Version 2
Размер файла : 26,2 Гбайт
Продолжительность : 1 ч. 31 м.
Режим общего битрейта : Переменный
Общий поток : 40,8 Мбит/сек
Название фильма : Beauty.and.the.Beast.1991.BDRemux.1080p.KORSAR
Дата кодирования : UTC 2018-12-30 22:58:28
Программа кодирования : mkvmerge v7.8.0 ('River Man') 32bit built on Apr 3 2015 12:11:22
Библиотека кодирования : libebml v1.3.1 + libmatroska v1.4.2

Видео
Идентификатор : 1
Формат : AVC
Формат/Информация : Advanced Video Codec
Профиль формата : High@L4.1
Параметр CABAC формата : Да
Параметр RefFrames формата : 4 кадра
Идентификатор кодека : V_MPEG4/ISO/AVC
Продолжительность : 1 ч. 31 м.
Вид битрейта : Переменный
Битрейт : 23,8 Мбит/сек
Максимальный битрейт : 31,0 Мбит/сек
Ширина : 1920 пикселей
Высота : 1080 пикселей
Соотношение сторон : 16:9
Режим частоты кадров : Постоянный
Частота кадров : 23,976 (24000/1001) кадра/сек
Цветовое пространство : YUV
Субдискретизация насыщенности : 4:2:0
Битовая глубина : 8 бит
Тип развёртки : Прогрессивная
Бит/(Пиксели*Кадры) : 0.479
Размер потока : 15,3 Гбайт (58%)
Заголовок : Beauty.and.the.Beast.1991.BDRemux.1080p.KORSAR
Язык : English
Default : Да
Forced : Нет
Цветовой диапазон : Limited
Основные цвета : BT.709
Характеристики трансфера : BT.709
Коэффициенты матрицы : BT.709

Аудио #1
Идентификатор : 2
Формат : AC-3
Формат/Информация : Audio Coding 3
Параметр Endianness формата : Big
Идентификатор кодека : A_AC3
Продолжительность : 1 ч. 31 м.
Вид битрейта : Постоянный
Битрейт : 384 Кбит/сек
Каналы : 6 каналов
Расположение каналов : Front: L C R, Side: L R, LFE
Частота : 48,0 КГц
Частота кадров : 31,250 кадров/сек (1536 SPF)
Битовая глубина : 16 бит
Метод сжатия : С потерями
Размер потока : 252 Мбайт (1%)
Заголовок : DUB, R5
Язык : Russian
Default : Да
Forced : Нет

Аудио #2
Идентификатор : 3
Формат : AC-3
Формат/Информация : Audio Coding 3
Параметр Endianness формата : Big
Идентификатор кодека : A_AC3
Продолжительность : 1 ч. 31 м.
Вид битрейта : Постоянный
Битрейт : 384 Кбит/сек
Каналы : 6 каналов
Расположение каналов : Front: L C R, Side: L R, LFE
Частота : 48,0 КГц
Частота кадров : 31,250 кадров/сек (1536 SPF)
Битовая глубина : 16 бит
Метод сжатия : С потерями
Размер потока : 252 Мбайт (1%)
Заголовок : MVO
Язык : Russian
Default : Нет
Forced : Нет

Аудио #3
Идентификатор : 4
Формат : DTS
Формат/Информация : Digital Theater Systems
Профиль формата : MA / ES Matrix / Core
Режим : 16
Параметр Endianness формата : Big
Идентификатор кодека : A_DTS
Продолжительность : 1 ч. 31 м.
Вид битрейта : Переменный / Постоянный / Постоянный
Битрейт : 5320 Кбит/сек / 1509 Кбит/сек / 1509 Кбит/сек
Каналы : 8 каналов / 7 каналов / 6 каналов
Расположение каналов : Front: L C R, Side: L R, Back: L R, LFE / Front: L C R, Side: L R, Back: C, LFE / Front: L C R, Side: L R, LFE
Частота : 48,0 КГц
Частота кадров : 93,750 кадра/сек (512 SPF)
Битовая глубина : 24 бит
Метод сжатия : Без потерь / Lossy / Lossy
Размер потока : 3,41 Гбайт (13%)
Заголовок : DVO, П. Гланц и И. Королева
Язык : Russian
Default : Нет
Forced : Нет

Аудио #4
Идентификатор : 5
Формат : DTS
Формат/Информация : Digital Theater Systems
Режим : 16
Параметр Endianness формата : Big
Идентификатор кодека : A_DTS
Продолжительность : 1 ч. 31 м.
Вид битрейта : Постоянный
Битрейт : 1510 Кбит/сек
Каналы : 6 каналов
Расположение каналов : Front: L C R, Side: L R, LFE
Частота : 48,0 КГц
Частота кадров : 93,750 кадра/сек (512 SPF)
Битовая глубина : 24 бит
Метод сжатия : С потерями
Размер потока : 991 Мбайт (4%)
Заголовок : AVO, А. Гаврилов
Язык : Russian
Default : Нет
Forced : Нет

Аудио #5
Идентификатор : 6
Формат : DTS
Формат/Информация : Digital Theater Systems
Режим : 16
Параметр Endianness формата : Big
Идентификатор кодека : A_DTS
Продолжительность : 1 ч. 31 м.
Вид битрейта : Постоянный
Битрейт : 1510 Кбит/сек
Каналы : 6 каналов
Расположение каналов : Front: L C R, Side: L R, LFE
Частота : 48,0 КГц
Частота кадров : 93,750 кадра/сек (512 SPF)
Битовая глубина : 24 бит
Метод сжатия : С потерями
Размер потока : 991 Мбайт (4%)
Заголовок : AVO, Ю. Живов
Язык : Russian
Default : Нет
Forced : Нет

Аудио #6
Идентификатор : 7
Формат : DTS
Формат/Информация : Digital Theater Systems
Режим : 16
Параметр Endianness формата : Big
Идентификатор кодека : A_DTS
Продолжительность : 1 ч. 31 м.
Вид битрейта : Постоянный
Битрейт : 1510 Кбит/сек
Каналы : 6 каналов
Расположение каналов : Front: L C R, Side: L R, LFE
Частота : 48,0 КГц
Частота кадров : 93,750 кадра/сек (512 SPF)
Битовая глубина : 24 бит
Метод сжатия : С потерями
Размер потока : 991 Мбайт (4%)
Заголовок : AVO, А. Михалев
Язык : Russian
Default : Нет
Forced : Нет

Аудио #7
Идентификатор : 8
Формат : AC-3
Формат/Информация : Audio Coding 3
Параметр Endianness формата : Big
Идентификатор кодека : A_AC3
Продолжительность : 1 ч. 31 м.
Вид битрейта : Постоянный
Битрейт : 640 Кбит/сек
Каналы : 6 каналов
Расположение каналов : Front: L C R, Side: L R, LFE
Частота : 48,0 КГц
Частота кадров : 31,250 кадров/сек (1536 SPF)
Битовая глубина : 16 бит
Метод сжатия : С потерями
Размер потока : 421 Мбайт (2%)
Заголовок : DUB
Язык : Ukrainian
Default : Нет
Forced : Нет

Аудио #8
Идентификатор : 9
Формат : DTS
Формат/Информация : Digital Theater Systems
Профиль формата : MA / Core
Режим : 16
Параметр Endianness формата : Big
Идентификатор кодека : A_DTS
Продолжительность : 1 ч. 31 м.
Вид битрейта : Переменный / Постоянный
Битрейт : 5789 Кбит/сек / 1509 Кбит/сек
Каналы : 8 каналов / 6 каналов
Расположение каналов : Front: L C R, Side: L R, Back: L R, LFE / Front: L C R, Side: L R, LFE
Частота : 48,0 КГц
Частота кадров : 93,750 кадра/сек (512 SPF)
Битовая глубина : 24 бит
Метод сжатия : Без потерь / Lossy
Размер потока : 3,71 Гбайт (14%)
Заголовок : Оригинал
Язык : English
Default : Нет
Forced : Нет

Текст #1
Идентификатор : 10
Формат : UTF-8
Идентификатор кодека : S_TEXT/UTF8
Идентификатор кодека/Информация : UTF-8 Plain Text
Продолжительность : 1 ч. 30 м.
Битрейт : 101 бит/сек
ElementCount : 1575
Размер потока : 67,0 Кбайт (0%)
Заголовок : Full №1
Язык : Russian
Default : Нет
Forced : Нет

Текст #2
Идентификатор : 11
Формат : UTF-8
Идентификатор кодека : S_TEXT/UTF8
Идентификатор кодека/Информация : UTF-8 Plain Text
Продолжительность : 1 ч. 23 м.
Битрейт : 96 бит/сек
ElementCount : 1595
Размер потока : 59,2 Кбайт (0%)
Заголовок : Full №2
Язык : Russian
Default : Нет
Forced : Нет

Текст #3
Идентификатор : 12
Формат : UTF-8
Идентификатор кодека : S_TEXT/UTF8
Идентификатор кодека/Информация : UTF-8 Plain Text
Продолжительность : 1 ч. 23 м.
Битрейт : 95 бит/сек
ElementCount : 985
Размер потока : 58,5 Кбайт (0%)
Заголовок : Full №3
Язык : Russian
Default : Нет
Forced : Нет

Текст #4
Идентификатор : 13
Формат : UTF-8
Идентификатор кодека : S_TEXT/UTF8
Идентификатор кодека/Информация : UTF-8 Plain Text
Продолжительность : 1 ч. 30 м.
Битрейт : 90 бит/сек
ElementCount : 1205
Размер потока : 59,8 Кбайт (0%)
Заголовок : Full
Язык : Ukrainian
Default : Нет
Forced : Нет

Текст #5
Идентификатор : 14
Формат : UTF-8
Идентификатор кодека : S_TEXT/UTF8
Идентификатор кодека/Информация : UTF-8 Plain Text
Продолжительность : 1 ч. 24 м.
Битрейт : 67 бит/сек
ElementCount : 1200
Размер потока : 41,8 Кбайт (0%)
Заголовок : Full
Язык : English
Default : Нет
Forced : Нет

Меню
00:00:00.000 : en:Chapter 1
00:03:19.616 : en:Chapter 2
00:08:24.837 : en:Chapter 3
00:13:50.955 : en:Chapter 4
00:17:34.887 : en:Chapter 5
00:20:53.835 : en:Chapter 6
00:25:34.241 : en:Chapter 7
00:27:04.748 : en:Chapter 8
00:34:58.846 : en:Chapter 9
00:38:28.848 : en:Chapter 10
00:43:50.794 : en:Chapter 11
00:49:25.629 : en:Chapter 12
00:51:59.074 : en:Chapter 13
00:53:59.736 : en:Chapter 14
00:57:26.443 : en:Chapter 15
01:03:07.241 : en:Chapter 16
01:09:42.553 : en:Chapter 17
01:11:28.450 : en:Chapter 18
01:14:22.458 : en:Chapter 19
01:17:15.380 : en:Chapter 20
01:21:48.904 : en:Chapter 21
01:25:59.988 : en:Chapter 22

Релиз от: piratbit.org



Скачать Красавица и чудовище через торрент https://i6.imageban.ru/out/2019/07/04/f8e87405921da6e8cf6d0bfb9a128167.png Скачать фильм Красавица и чудовище через торрент бесплантно в хорошем качестве Описание: Фильм приглашает в зачарованный замок, скрытый в чаще темного волшебного леса. Его хозяин ужасное Чудовище, которого все боятся и ... 10 10 2
Info! Золотая раздача, скачанное не засчитывается.
Торрент: Зарегистрирован [2019-07-04 15:30] · скачан: 10 раз
Статус: √ проверено
Размер: 26.2 GB
Как cкачать? Как скачать Красавица и чудовище через торрент | qTorrent


>> Регистрируемся здесь <<






Отзывы и комментарии о схеме читаем и пишем здесь: ---> Отзывы и комментарии о схеме

Новые благодарочки в телеграм довольных пользователей:
скриншот   скриншот   скриншот   скриншот   скриншот
    Дорогой пользователь! Огромная просьба, поблагодарите релизера, оцените раздачу и оставьте свои комментарий, если Вы скачали Красавица и чудовище через торрент бесплатно! Внесите свою лепту в развитие PiratBit!
    Комментировать посты могут только пользователи прошедшие не сложную регистрацию
    Показать сообщения:    

    Красавица и чудовище через торрент
    Скачать бесплатно Красавица и чудовище
    Красавица и чудовище скачать торрент
    Красавица и чудовище смотреть онлайн
    Cкачать фильм Красавица и чудовище бесплатно
    Красавица и чудовище скачать торрент в хорошем качестве
    Красавица и чудовище смотреть онлайн бесплатно в хорошем качестве


    Вы не можете начинать темы
    Вы не можете отвечать на сообщения
    Вы не можете редактировать свои сообщения
    Вы не можете удалять свои сообщения
    Вы не можете голосовать в опросах
    Вы не можете прикреплять файлы к сообщениям
    Вы можете скачивать файлы