MEGA NEWS Получи личный уникальный адрес сайта и защити себя от блокировок. Внимание количество ограничено!!!

iTunes

1+1

iTunes

мы

iTunes

1

iTunes

Чернобыль

iTunes

Ральф против интернета

Лицензия

ПШазам

Лицензия

Игра престолов

Лицензия

30
pack

ВАЖНО

!!Акция!!

Alien_RageХит недели

RePack

Resident Evil 21

ИГРА 18+

pack

RePack

Metro:Exodus

!!Акция!!

Alien_Rage

RePack

fifa19

RePack

Assassins Creed: Odyssey

RePack

NEED FOR SPEED™ PAYBACK

3 сезон

9 сезон

Бесстыжие 9 сезон

Все сериалы

все сериалы на PB.wtf

RePack

FAR CRY 5
Ребята, катастрофически не хватает 1900р. для оплаты серверов за АВГУСТ (всвязи с блокировками трафик упал в 3 раза), 1-2р., выручайте.
  

Клаустрофобы / Escape Room (Адам Робител) [2019, триллер, BDRip 1080p, 60 fps] Дубляж [iTunes] piratbit.org

Клаустрофобы через торрент piratbit.org

Раздают: 2 [ 339 KB/s ]
Размер: 12.27 GB | Добавлен: 3 мес. 12 д. назад | Торрент скачан:82 раза
Скачать  

05-07-2019 02:22 Клаустрофобы Скачать торрент  

Клаустрофобы / Escape Room«Игры кончились»

Год выпуска: 2019
Страна: США, Канада
Жанр: триллер
Продолжительность: 01:39:37
Перевод: Дублированное [iTunes]
Субтитры: Русские, английские
Режиссер: Адам Робител
В ролях:

Тейлор Расселл (Zoey Davis), Логан Миллер (Ben Miller), Джей Эллис (Jason Walker), Тайлер Лабин (Mike Nolan), Дебора Энн Уолл (Amanda Harper), Ник Додани (Danny Khan), Йорик ван Вагенинген (Games Master WooTan Yu), Корнелиус Джини мл. (College Professor), Расселл Краус (Charlie - Jason's Assistant), Барт Фаш (Gary - Ben's Boss), Джессика Саттон (Allison - Zoey's Roommate), Пол Хэмпшир (Hazmat One)
Описание:
Получив приглашение сыграть в квест, победитель которого получит денежное вознаграждение, шестеро прежде незнакомых между собой людей решают испытать удачу. Но вскоре становится очевидно, что их выбрали для игры не случайно, задания не такие безобидные, участникам грозит вполне реальная опасность, а ставка в игре - их собственные жизни.
Рейтинг:

MPAA: PG-13 - Детям до 13 лет просмотр не желателен
Качество: BDRip 1080p
Формат: MKV
Видео: AVC | 1920 x 800 | 59.940 fps | 15.0 Мбит/сек
Аудио #1: AC-3 | 5.1 | 48 kHz | 384 Кбит/сек | 16 bit | Дубляж (iTunes) | RUS |
Аудио #2: DTS | 5.1 | 48 kHz | 1509 Кбит/сек | 16 bit | Оригинал | ENG
Навигация по главам: есть

General
Unique ID : 112246152263559015874331570283424034506 (0x5471D29483EB292044B07882EF58AECA)
Complete name : D:\2019 Клаустрофобы BDRip 1800p 60 fps.mkv
Format : Matroska
Format version : Version 4 / Version 2
File size : 12.3 GiB
Duration : 1h 39mn
Overall bit rate mode : Variable
Overall bit rate : 17.6 Mbps
Movie name : Клаустрофобы / Escape Room
Encoded date : UTC 2019-04-16 10:30:03
Writing application : mkvmerge v22.0.0 ('At The End Of The World') 64-bit
Writing library : libebml v1.3.5 + libmatroska v1.4.8
DURATION : 01:37:12.131000000
NUMBER_OF_FRAMES : 1764
NUMBER_OF_BYTES : 52967
_STATISTICS_WRITING_APP : mkvmerge v22.0.0 ('At The End Of The World') 64-bit
_STATISTICS_WRITING_DATE_UTC : 2019-04-16 10:30:03
_STATISTICS_TAGS : BPS DURATION NUMBER_OF_FRAMES NUMBER_OF_BYTES
Video #1
ID : 1
Format : AVC
Format/Info : Advanced Video Codec
Format profile : High@L4.1
Format settings, CABAC : Yes
Format settings, ReFrames : 5 frames
Codec ID : V_MPEG4/ISO/AVC
Duration : 1h 39mn
Bit rate : 15.0 Mbps
Width : 1 920 pixels
Height : 800 pixels
Display aspect ratio : 2.40:1
Frame rate : 59.940 fps
Color space : YUV
Chroma subsampling : 4:2:0
Bit depth : 8 bits
Scan type : Progressive
Bits/(Pixel*Frame) : 0.163
Stream size : 10.3 GiB (84%)
Writing library : x264 core 146 r2538 121396c
Encoding settings : cabac=1 / ref=5 / deblock=1:-2:-2 / analyse=0x3:0x113 / me=umh / subme=9 / psy=1 / psy_rd=1.00:0.25 / mixed_ref=1 / me_range=32 / chroma_me=1 / trellis=2 / 8x8dct=1 / cqm=0 / deadzone=6,6 / fast_pskip=1 / chroma_qp_offset=-4 / threads=12 / lookahead_threads=2 / sliced_threads=0 / nr=0 / decimate=0 / interlaced=0 / bluray_compat=0 / constrained_intra=0 / bframes=3 / b_pyramid=2 / b_adapt=2 / b_bias=0 / direct=3 / weightb=1 / open_gop=0 / weightp=2 / keyint=600 / keyint_min=60 / scenecut=40 / intra_refresh=0 / rc_lookahead=60 / rc=2pass / mbtree=1 / bitrate=15000 / ratetol=1.0 / qcomp=0.80 / qpmin=0 / qpmax=69 / qpstep=4 / cplxblur=20.0 / qblur=0.5 / vbv_maxrate=50000 / vbv_bufsize=50000 / nal_hrd=none / filler=0 / ip_ratio=1.10 / aq=1:0.50
Language : English
Default : Yes
Forced : No
DURATION : 01:39:37.906000000
NUMBER_OF_FRAMES : 358316
NUMBER_OF_BYTES : 11205907373
_STATISTICS_WRITING_APP : mkvmerge v22.0.0 ('At The End Of The World') 64-bit
_STATISTICS_WRITING_DATE_UTC : 2019-04-16 10:30:03
_STATISTICS_TAGS : BPS DURATION NUMBER_OF_FRAMES NUMBER_OF_BYTES
Audio #2
ID : 2
Format : AC-3
Format/Info : Audio Coding 3
Mode extension : CM (complete main)
Format settings, Endianness : Big
Codec ID : A_AC3
Duration : 1h 39mn
Bit rate mode : Constant
Bit rate : 384 Kbps
Channel(s) : 6 channels
Channel positions : Front: L C R, Side: L R, LFE
Sampling rate : 48.0 KHz
Bit depth : 16 bits
Compression mode : Lossy
Stream size : 274 MiB (2%)
Title : iTunes
Language : Russian
Default : Yes
Forced : Yes
Audio #3
ID : 3
Format : DTS
Format/Info : Digital Theater Systems
Format profile : MA / Core
Codec ID : A_DTS
Duration : 1h 39mn
Bit rate mode : Variable
Bit rate : 2 053 Kbps / 1 510 Kbps
Channel(s) : 6 channels
Channel positions : Front: L C R, Side: L R, LFE
Sampling rate : 48.0 KHz
Bit depth : 16 bits
Compression mode : Lossless / Lossy
Title : Original
Language : English
Default : No
Forced : No
Text #4
ID : 4
Format : UTF-8
Codec ID : S_TEXT/UTF8
Codec ID/Info : UTF-8 Plain Text
Title : Forced
Language : Russian
Default : Yes
Forced : Yes
Text #5
ID : 5
Format : UTF-8
Codec ID : S_TEXT/UTF8
Codec ID/Info : UTF-8 Plain Text
Title : Full
Language : Russian
Default : No
Forced : No
Text #6
ID : 6
Format : UTF-8
Codec ID : S_TEXT/UTF8
Codec ID/Info : UTF-8 Plain Text
Title : Full
Language : English
Default : No
Forced : No
Text #7
ID : 7
Format : UTF-8
Codec ID : S_TEXT/UTF8
Codec ID/Info : UTF-8 Plain Text
Title : SDH
Language : English
Default : No
Forced : No
Menu
00:00:00.000 : en:Chapter 1
00:04:36.026 : en:Chapter 2
00:09:25.648 : en:Chapter 3
00:14:08.765 : en:Chapter 4
00:19:46.102 : en:Chapter 5
00:25:55.220 : en:Chapter 6
00:33:08.945 : en:Chapter 7
00:37:27.162 : en:Chapter 8
00:43:05.082 : en:Chapter 9
00:50:06.170 : en:Chapter 10
00:53:58.569 : en:Chapter 11
01:03:15.291 : en:Chapter 12
01:09:07.894 : en:Chapter 13
01:16:14.695 : en:Chapter 14
01:22:48.755 : en:Chapter 15
01:30:27.881 : en:Chapter 16
piratbit.org



Скачать Клаустрофобы через торрент https://b.radikal.ru/b26/1907/72/0f1b6cc917f6.png Скачать фильм Клаустрофобы через торрент бесплантно в хорошем качестве Описание: Получив приглашение сыграть в квест, победитель которого получит денежное вознаграждение, шестеро прежде незнакомых между собой ... 10 10 4
Info! Золотая раздача, скачанное не засчитывается.
Торрент: Зарегистрирован [2019-07-05 02:22] · скачан: 82 раз
Статус: √ проверено
Размер: 12.27 GB
Как cкачать? Как скачать Клаустрофобы через торрент | qTorrent

% Раздел Тема Автор DL S | L
Фильмы 2019 [DVDrip, WEB-DLRip, HDrip] (DUB, MVO) [ 1.46 GB ] Клаустрофобы / Escape Room [2019 BDRip] - [] Twi7ter Скачать
109 | 2
Фильмы 2019 [DVDrip, WEB-DLRip, HDrip] (DUB, MVO) [ 710 MB ] Клаустрофобы / Escape Room [2019 HDRip ""] coc900 Скачать
3 | 0
Фильмы 2019 [DVDrip, WEB-DLRip, HDrip] (DUB, MVO) [ 1.42 GB ] Клаустрофобы / Escape Room [2019 BDRip] bober100 Скачать
201 | 6
Фильмы [HD 720p, 1080p] (Хороший звук DUB, MVO) [ 4.06 GB ] Клаустрофобы / Escape Room [2019 BDRip 720p] bober100 Скачать
7 | 0
Фильмы (WEB-DL 720p, 1080p) [ 4.68 GB ] Клаустрофобы / Escape Room [2019 WEB-DL 1080p] bober100 Скачать
5 | 0
Фильмы 2019 [DVDrip, WEB-DLRip, HDrip] (DUB, MVO) [ 2.09 GB ] Клаустрофобы / Escape Room [2019 BDRip-AVC] DUB [] - ExKinoRay Enigma2010 Скачать
200 | 18
Фильмы (WEB-DL 720p, 1080p) [ 2.55 GB ] Клаустрофобы / Escape Room [2019 WEB-DL 720p] bober100 Скачать
6 | 0


>> Регистрируемся здесь <<






Отзывы и комментарии о схеме читаем и пишем здесь: ---> Отзывы и комментарии о схеме

Новые благодарочки в телеграм довольных пользователей:
скриншот   скриншот   скриншот   скриншот   скриншот

07-07-2019 11:37 Клаустрофобы Скачать торрент  

интересно было посмотреть! судя по концовке фильма, будет продолжение.piratbit.org



    Дорогой пользователь! Огромная просьба, поблагодарите релизера, оцените раздачу и оставьте свои комментарий, если Вы скачали Клаустрофобы через торрент бесплатно! Внесите свою лепту в развитие PiratBit!
    Комментировать посты могут только пользователи прошедшие не сложную регистрацию
    Показать сообщения:    

    Клаустрофобы через торрент
    Скачать бесплатно Клаустрофобы
    Клаустрофобы скачать торрент
    Клаустрофобы смотреть онлайн
    Cкачать фильм Клаустрофобы бесплатно
    Клаустрофобы скачать торрент в хорошем качестве
    Клаустрофобы смотреть онлайн бесплатно в хорошем качестве


    Вы не можете начинать темы
    Вы не можете отвечать на сообщения
    Вы не можете редактировать свои сообщения
    Вы не можете удалять свои сообщения
    Вы не можете голосовать в опросах
    Вы не можете прикреплять файлы к сообщениям
    Вы можете скачивать файлы