MEGA NEWS Получи личный уникальный адрес сайта и защити себя от блокировок. Внимание количество ограничено!!!

iTunes

1+1

iTunes

мы

iTunes

1

iTunes

Чернобыль

iTunes

Ральф против интернета

Лицензия

ПШазам

Лицензия

Игра престолов

Лицензия

30
pack

ВАЖНО

!!Акция!!

Alien_RageХит недели

RePack

Resident Evil 21

ИГРА 18+

pack

RePack

Metro:Exodus

!!Акция!!

Alien_Rage

RePack

fifa19

RePack

Assassins Creed: Odyssey

RePack

NEED FOR SPEED™ PAYBACK

3 сезон

9 сезон

Бесстыжие 9 сезон

Все сериалы

все сериалы на PB.wtf

RePack

FAR CRY 5
Ребята, катастрофически не хватает 1900р. для оплаты серверов за АВГУСТ (всвязи с блокировками трафик упал в 3 раза), 1-2р., выручайте.
  

Балканский рубеж (Андрей Волгин) [2019, боевик, драма, BDRip 1080p, 60 fps] [iTunes] piratbit.org

Балканский рубеж через торрент piratbit.org

Раздают: 2 [ 0.2 KB/s ] Качают: 2 [ 0 KB/s ]
Размер: 13.02 GB | Добавлен: 3 мес. 12 д. назад | Торрент скачан:125 раз
Скачать  

05-07-2019 02:34 Балканский рубеж Скачать торрент  

Балканский рубеж««Мир, за который стоит бороться»»

Год выпуска: 2019
Страна: Россия, Сербия
Жанр: боевик, драма
Продолжительность: 02:30:35
Перевод: Не требуется | iTunes
Субтитры: английские
Режиссер: Андрей Волгин
В ролях:

Антон Пампушный (Андрей Шаталов), Гоша Куценко (Бек), Милош Бикович (Вук Петрович), Милена Радулович (Ясна Благоевич), Гойко Митич (Горан Милич), Равшана Куркова (Вера), Дмитрий Фрид (Герхард Штерн, доктор), Александар Сречкович (Смук), Светлана Чуйкина (Марта, медсестра), Миодраг Радонич (Амир), Никола Ранделович (Стеван), Эмир Кустурица (таксист)
Описание:
Югославия. 1999 год. Российская спецгруппа получает приказ взять под контроль аэродром Слатина в Косово и удерживать его до прихода подкрепления. Но этот стратегический объект крайне важен албанскому полевому командиру и натовским генералам. Группа вынуждена принять неравный бой с террористами. К аэродрому устремляются российские миротворцы и силы НАТО. Мир вновь близок к большой войне. Но командиру спецгруппы Андрею Шаталову не до политики: в аэропорту среди заложников его любимая девушка Ясна...
Рейтинг:

Качество: BDRip 1080p
Формат: MKV
Видео: AVC | 1920 x 800 | 60.000 fps | 12.0 Мбит/сек
Аудио: AC-3 | 5.1 | 48 kHz | 384 Кбит/сек | 16 bit | (iTunes) | RUS |
Навигация по главам: есть

General
Unique ID : 238784977630518269534348837272341648953 (0xB3A45059B5691CF070C2EE85B50F1639)
Complete name : D:\2018 Балканский рубеж BDRip 1080p 60 fps.mkv
Format : Matroska
Format version : Version 4 / Version 2
File size : 13.0 GiB
Duration : 2h 30mn
Overall bit rate : 12.4 Mbps
Movie name : Балканский рубеж
Encoded date : UTC 2019-05-28 19:44:18
Writing application : mkvmerge v22.0.0 ('At The End Of The World') 64-bit
Writing library : libebml v1.3.5 + libmatroska v1.4.8
DURATION : 02:30:35.520000000
NUMBER_OF_FRAMES : 282360
NUMBER_OF_BYTES : 433704960
_STATISTICS_WRITING_APP : mkvmerge v22.0.0 ('At The End Of The World') 64-bit
_STATISTICS_WRITING_DATE_UTC : 2019-05-28 19:44:18
_STATISTICS_TAGS : BPS DURATION NUMBER_OF_FRAMES NUMBER_OF_BYTES
Video #1
ID : 1
Format : AVC
Format/Info : Advanced Video Codec
Format profile : High@L4.1
Format settings, CABAC : Yes
Format settings, ReFrames : 5 frames
Codec ID : V_MPEG4/ISO/AVC
Duration : 2h 30mn
Bit rate : 12.0 Mbps
Width : 1 920 pixels
Height : 800 pixels
Display aspect ratio : 2.40:1
Frame rate : 60.000 fps
Color space : YUV
Chroma subsampling : 4:2:0
Bit depth : 8 bits
Scan type : Progressive
Bits/(Pixel*Frame) : 0.130
Stream size : 12.4 GiB (95%)
Writing library : x264 core 146 r2538 121396c
Encoding settings : cabac=1 / ref=5 / deblock=1:-2:-2 / analyse=0x3:0x113 / me=umh / subme=9 / psy=1 / psy_rd=1.00:0.25 / mixed_ref=1 / me_range=32 / chroma_me=1 / trellis=2 / 8x8dct=1 / cqm=0 / deadzone=6,6 / fast_pskip=1 / chroma_qp_offset=-4 / threads=12 / lookahead_threads=2 / sliced_threads=0 / nr=0 / decimate=0 / interlaced=0 / bluray_compat=0 / constrained_intra=0 / bframes=3 / b_pyramid=2 / b_adapt=2 / b_bias=0 / direct=3 / weightb=1 / open_gop=0 / weightp=2 / keyint=600 / keyint_min=60 / scenecut=40 / intra_refresh=0 / rc_lookahead=60 / rc=2pass / mbtree=1 / bitrate=12000 / ratetol=1.0 / qcomp=0.80 / qpmin=0 / qpmax=69 / qpstep=4 / cplxblur=20.0 / qblur=0.5 / vbv_maxrate=50000 / vbv_bufsize=50000 / nal_hrd=none / filler=0 / ip_ratio=1.10 / aq=1:0.50
Language : Russian
Default : Yes
Forced : No
DURATION : 02:30:35.384000000
NUMBER_OF_FRAMES : 542123
NUMBER_OF_BYTES : 13543196765
_STATISTICS_WRITING_APP : mkvmerge v22.0.0 ('At The End Of The World') 64-bit
_STATISTICS_WRITING_DATE_UTC : 2019-05-28 19:44:18
_STATISTICS_TAGS : BPS DURATION NUMBER_OF_FRAMES NUMBER_OF_BYTES
Audio #2
ID : 2
Format : AC-3
Format/Info : Audio Coding 3
Mode extension : CM (complete main)
Format settings, Endianness : Big
Codec ID : A_AC3
Duration : 2h 30mn
Bit rate mode : Constant
Bit rate : 384 Kbps
Channel(s) : 6 channels
Channel positions : Front: L C R, Side: L R, LFE
Sampling rate : 48.0 KHz
Bit depth : 16 bits
Compression mode : Lossy
Stream size : 414 MiB (3%)
Title : iTunes
Language : Russian
Default : Yes
Forced : No
Menu
00:00:00.000 : en:Глава 1
00:08:07.583 : en:Глава 2
00:16:05.374 : en:Глава 3
00:24:34.164 : en:Глава 4
00:32:34.704 : en:Глава 5
00:40:46.079 : en:Глава 6
00:48:54.370 : en:Глава 7
00:57:07.203 : en:Глава 8
01:05:33.661 : en:Глава 9
01:15:00.618 : en:Глава 10
01:23:12.534 : en:Глава 11
01:31:20.659 : en:Глава 12
01:39:42.491 : en:Глава 13
01:47:49.948 : en:Глава 14
01:56:03.614 : en:Глава 15
02:04:19.739 : en:Глава 16
02:13:00.239 : en:Глава 17
02:21:11.030 : en:Глава 18
piratbit.org



Скачать Балканский рубеж через торрент https://a.radikal.ru/a38/1907/af/5754c64cbc43.png Скачать фильм Балканский рубеж через торрент бесплантно в хорошем качестве Описание: Югославия. 1999 год. Российская спецгруппа получает приказ взять под контроль аэродром Слатина в Косово и удерживать его до ... 9.9 10 13
Торрент: Зарегистрирован [2019-07-05 02:34] · скачан: 125 раз
Статус: √ проверено
Размер: 13.02 GB
Как cкачать? Как скачать Балканский рубеж через торрент | qTorrent

% Раздел Тема Автор DL S | L
Наши новые фильмы 2018-2019 [ 2.9 GB ] Балканский рубеж [2019 BDRip-AVC] sokol_ok Скачать
34 | 2
Наши новые фильмы 2018-2019 [ 2.81 GB ] Балканский рубеж [2019 BDRip-AVC] 2x [ ] bober100 Скачать
3 | 0
Наши новые фильмы 2018-2019 [ 1.47 GB ] Балканский рубеж [2019 BDRip-AVC] sokol_ok Скачать
53 | 1
Наши новые фильмы 2018-2019 [ 2.11 GB ] Балканский рубеж [2019 BDRip] [Русский] Twi7ter Скачать
30 | 0
Наши фильмы (Blu-ray, BD-Remux, HDDVD) [ 38.07 GB ] Балканский рубеж [2019 BDRemux 1080p] [FRA Transfer] sheker187 Скачать
1 | 0
Наши фильмы (HD, WEB-DL 720p, 1080p) [ 5.37 GB ] Балканский рубеж [2019 BDRip 720p] bober100 Скачать
3 | 0
Наши новые фильмы 2018-2019 [ 1.46 GB ] Балканский рубеж [2019 BDRip] [Русский] Twi7ter Скачать
31 | 1


>> Регистрируемся здесь <<






Отзывы и комментарии о схеме читаем и пишем здесь: ---> Отзывы и комментарии о схеме

Новые благодарочки в телеграм довольных пользователей:
скриншот   скриншот   скриншот   скриншот   скриншот
    Дорогой пользователь! Огромная просьба, поблагодарите релизера, оцените раздачу и оставьте свои комментарий, если Вы скачали Балканский рубеж через торрент бесплатно! Внесите свою лепту в развитие PiratBit!
    Комментировать посты могут только пользователи прошедшие не сложную регистрацию
    Показать сообщения:    

    Балканский рубеж через торрент
    Скачать бесплатно Балканский рубеж
    Балканский рубеж скачать торрент
    Балканский рубеж смотреть онлайн
    Cкачать фильм Балканский рубеж бесплатно
    Балканский рубеж скачать торрент в хорошем качестве
    Балканский рубеж смотреть онлайн бесплатно в хорошем качестве


    Вы не можете начинать темы
    Вы не можете отвечать на сообщения
    Вы не можете редактировать свои сообщения
    Вы не можете удалять свои сообщения
    Вы не можете голосовать в опросах
    Вы не можете прикреплять файлы к сообщениям
    Вы можете скачивать файлы