Доктор Стрэндж

Лицензия

Добыча

MVO

Дом дракона

1 сезон

Тор

Лицензия

Мэверик

Лицензия

Там, где раки поют

MVO

Властелин колец

1 сезон

Ultimate

pack

Рекомендуем

30

Repack

ВАЖНО

ВАЖНО

Ghostwire

RePack

jed

RePack

nioh2

RePack

RDR2

RePack

NEED FOR SPEED™ PAYBACK

RePack

скачать торрент

Кинопоиск HD

Острые козырьки 6 сезон

6 сезон

FAR CRY 6

RePack

скачать торрент

Лицензия

скачать торрент

MVO

1

1 сезон

скачать торрент

1 сезон

скачать торрент

Лицензия

  

Место встречи изменить нельзя / Серии 1-5 из 5 (Станислав Говорухин) [1979, боевик, криминал, детектив, приключения, HDTVRip 720p от KORSAR]

Место встречи изменить нельзя через торрент piratbit.org

Размер: 16.7 GB | Добавлен: 3 года 2 мес. назад | Торрент скачан:47 раз
Смотреть онлайн Место встречи изменить нельзя | Скачать   

05-07-2019 09:56 Место встречи изменить нельзя Скачать торрент  

Место встречи изменить нельзя

Страна: СССР
Студия: Одесская киностудия
Жанр: боевик, криминал, детектив, приключения
Год выпуска: 1979
Продолжительность: 362 минуты

Перевод: Не требуется
Субтитры: нет
Оригинальная аудиодорожка: русский

Режиссер: Станислав Говорухин

В ролях: Владимир Высоцкий, Владимир Конкин, Сергей Юрский, Виктор Павлов, Наталья Фатеева, Леонид Куравлёв, Светлана Светличная, Александр Белявский, Евгений Евстигнеев, Армен Джигарханян, Наталья Рычагова, Антонина Кончакова

Описание: Убийства, засады, погони, перестрелки - на фоне послевоенной Москвы. Сотрудники МУРа против таинственной и неуловимой банды "Черная кошка". Демобилизовавшийся офицер разведки Володя Шарапов начинает работать в отделе по борьбе с бандитизмом. Одно из первых дел, в расследовании которых он участвует, - убийство Ларисы Груздевой...

Релиз от:

Тип релиза: HDTVRip 720p
Контейнер: MKV

Видео: MPEG-4 AVC, 988x720, 25 fps, ~5370 Кбит/с
Аудио: AC3, 2 ch, 192 Кбит/с
x264 [info]: frame I:561 Avg QP:18.13 size:142606
x264 [info]: frame P:24872 Avg QP:19.48 size: 79815
x264 [info]: frame B:86377 Avg QP:21.46 size: 17484
x264 [info]: consecutive B-frames: 1.0% 2.3% 13.7% 14.6% 31.6% 34.7% 1.8% 0.2% 0.2%

Общее
Уникальный идентификатор : 178945981622089786099355122405579694161 (0x869FBE10C4DF0FE7A9F2053B70482051)
Полное имя : D:\Место встречи изменить нельзя_1979-HDTVRip 720p_KORSAR\Жеглов & Шарапов-1.mkv
Формат : Matroska
Версия формата : Version 2
Размер файла : 2,65 Гбайт
Продолжительность : 1 ч. 6 м.
Общий поток : 5674 Кбит/сек
Название фильма : Место встречи изменить нельзя_1979-HDTVRip 720p_KORSAR
Дата кодирования : UTC 2019-06-30 07:24:51
Программа кодирования : mkvmerge v5.8.0 ('No Sleep / Pillow') built on Sep 2 2012 15:37:04
Библиотека кодирования : libebml v1.2.3 + libmatroska v1.3.0

Видео
Идентификатор : 1
Формат : AVC
Формат/Информация : Advanced Video Codec
Профиль формата : High@L4.1
Настройки формата : CABAC / 11 Ref Frames
Параметр CABAC формата : Да
Параметр RefFrames формата : 11 кадров
Идентификатор кодека : V_MPEG4/ISO/AVC
Продолжительность : 1 ч. 6 м.
Битрейт : 5369 Кбит/сек
Ширина : 988 пикселей
Высота : 720 пикселей
Соотношение сторон : 1,372
Режим частоты кадров : Постоянный
Частота кадров : 25,000 кадров/сек
Цветовое пространство : YUV
Субдискретизация насыщенности : 4:2:0
Битовая глубина : 8 бит
Тип развёртки : Прогрессивная
Бит/(Пиксели*Кадры) : 0.302
Размер потока : 2,50 Гбайт (95%)
Библиотека кодирования : x264 core 152 r2851kMod ba24899
Настройки программы : cabac=1 / ref=11 / deblock=1:-2:-2 / analyse=0x3:0x113 / me=umh / subme=10 / psy=1 / fade_compensate=0.00 / psy_rd=1.02:0.10 / mixed_ref=1 / me_range=40 / chroma_me=1 / trellis=2 / 8x8dct=1 / cqm=0 / deadzone=21,11 / fast_pskip=1 / chroma_qp_offset=-3 / threads=12 / lookahead_threads=2 / sliced_threads=0 / nr=0 / decimate=1 / interlaced=0 / bluray_compat=0 / constrained_intra=0 / bframes=8 / b_pyramid=2 / b_adapt=2 / b_bias=0 / direct=1 / weightb=1 / open_gop=0 / weightp=2 / keyint=250 / keyint_min=25 / scenecut=40 / intra_refresh=0 / rc=crf / mbtree=0 / crf=17.7000 / qcomp=0.63 / qpmin=0 / qpmax=30 / qpstep=4 / ip_ratio=1.40 / pb_ratio=1.30 / aq=1:0.80
Язык : English
Default : Да
Forced : Нет
Цветовой диапазон : Limited
Основные цвета : BT.709
Характеристики трансфера : BT.709
Коэффициенты матрицы : BT.709

Аудио
Идентификатор : 2
Формат : AC-3
Формат/Информация : Audio Coding 3
Коммерческое название : Dolby Digital
Идентификатор кодека : A_AC3
Продолжительность : 1 ч. 6 м.
Вид битрейта : Постоянный
Битрейт : 192 Кбит/сек
Каналы : 2 канала
ChannelLayout : L R
Частота : 48,0 КГц
Частота кадров : 31,250 кадров/сек (1536 SPF)
Битовая глубина : 16 бит
Метод сжатия : С потерями
Размер потока : 91,7 Мбайт (3%)
Язык : Russian
ServiceKind/String : Complete Main
Default : Да
Forced : Нет
скриншот   скриншот   скриншот   скриншот   скриншот   скриншот   скриншот   скриншот   скриншот   скриншот  



Скачать Место встречи изменить нельзя через торрент http://i4-imageban-ru.translate.goog/out/2018/01/14/5812325c59d9c7849032767c22eceb94.jpg Скачать, смотреть онлайн Место встречи изменить нельзя бесплантно в хорошем качестве Описание: Убийства, засады, погони, перестрелки - на фоне послевоенной Москвы. Сотрудники МУРа против таинственной и неуловимой банды ... 10 10 6
Info! Золотая раздача, скачанное не засчитывается.
Торрент: Зарегистрирован [2019-07-05 09:56] · скачан: 47 раз
Статус: √ проверено
Размер: 16.7 GB
Как cкачать? Как скачать Место встречи изменить нельзя через торрент | UTorrent

% Раздел Тема Автор DL S | L
Наши сериалы [ 31.23 GB ] Место встречи изменить нельзя / Серии: 1-5 из 5 | | HDTV 1080i bober100 Скачать
1 | 0
Наши сериалы [ 6.55 GB ] Место встречи изменить нельзя | | BDRip-AVC Бумер Скачать
1 | 0
Наши сериалы [ 7.2 GB ] Место встречи изменить нельзя | | DVDRip-AVC, Оригинал Бумер Скачать
1 | 0
Наши фильмы (Blu-ray, BD-Remux, HDDVD) [ 42.45 GB ] Место встречи изменить нельзя | | Blu-ray, Оригинал Бумер Скачать
1 | 0
Наши фильмы (Blu-ray, BD-Remux, HDDVD) [ 40.06 GB ] Место встречи изменить нельзя /5серий из 5/ | | Место встречи изменить нельзя /5серий из 5/ (Станислав Говорухин Бумер Скачать
1 | 0
Наши сериалы [ 5.7 GB ] Место встречи изменить нельзя / | | BDRip wekotila Скачать
1 | 0
Кино СССР [ 4.36 GB ] Место встречи изменить нельзя | | DVDRip DrIron Скачать
1 | 0

28-11-2019 20:33  

Отключить вcю реклaмy на сайте

05-07-2019 15:35 Место встречи изменить нельзя Скачать торрент  

Надеюсь выйдет без конченного логотипа второго канала и рекламы.



    Дорогой пользователь! Огромная просьба, поблагодарите релизера, оцените раздачу и оставьте свои комментарий, если Вы скачали Место встречи изменить нельзя через торрент бесплатно!!
    Комментировать посты могут только пользователи прошедшие не сложную регистрацию
    Показать сообщения:    


    Место встречи изменить нельзя через торрент
    Скачать бесплатно Место встречи изменить нельзя
    Место встречи изменить нельзя скачать торрент
    Место встречи изменить нельзя смотреть онлайн
    Cкачать фильм Место встречи изменить нельзя бесплатно
    Место встречи изменить нельзя скачать торрент в хорошем качестве
    Место встречи изменить нельзя смотреть онлайн бесплатно в хорошем качестве
    Вы не можете начинать темы
    Вы не можете отвечать на сообщения
    Вы не можете редактировать свои сообщения
    Вы не можете удалять свои сообщения
    Вы не можете голосовать в опросах
    Вы не можете прикреплять файлы к сообщениям
    Вы можете скачивать файлы