Мега распродажа FORZA HORIZON 4 ULTIMATE+ВСЕ DLC+ОНЛАЙН всего за 499р. 349 руб. (супер цена). Внимание количество ограничено!!!

iTunes

1+1

iTunes

мы

iTunes

1

1 сезон

Чернобыль

1 сезон

Ральф против интернета

Лицензия

ПШазам

8 сезон

Игра престолов

Лицензия

30
pack

ВАЖНО

!!Акция!!

Alien_RageХит недели

RePack

Resident Evil 21

ИГРА 18+

pack

RePack

Metro:Exodus

!!Акция!!

Alien_Rage

RePack

fifa19

RePack

Assassins Creed: Odyssey

RePack

NEED FOR SPEED™ PAYBACK

3 сезон

9 сезон

Бесстыжие 9 сезон

Все сериалы

все сериалы на PB.wtf

RePack

FAR CRY 5
Ребята, катастрофически не хватает 2730р. для оплаты серверов за ИЮНЬ (всвязи с блокировками трафик упал в 3 раза), 1-2р., выручайте.
  

Принц Египта / The Prince of Egypt (Бренда Чэпман, Стив Хикнер, Саймон Уэллс) [1998 г., мультфильм, приключения, драма, BDRip 720p] 2xDub + 2xDVO + 2xAVO - KORSAR piratbit.org

Принц Египта через торрент piratbit.org

Размер: 5.84 GB | Добавлен: 17 д. назад | Торрент скачан:19 раз
Скачать  

05-07-2019 15:40 Принц Египта Скачать торрент  

Название: Принц Египта
Оригинальное название: The Prince of Egypt
Год выпуска: 1998
Жанр: Мультфильм, приключения, драма
Выпущено: США, DreamWorks SKG, DreamWorks Animation
Продолжительность: 01:38:41
Перевод: Дублированный, профессиональный многоголосый, профессиональный двухголосый, авторский
Режиссер: Бренда Чэпман, Стив Хикнер, Саймон Уэллс
В ролях: Вэл Килмер, Рэйф Файнс, Мишель Пфайффер, Сандра Баллок, Джефф Голдблюм, Дэнни Гловер, Пэтрик Стюарт, Хелен Миррен, Стив Мартин, Мартин Шорт

Описание: Эта история случилась на заре цивилизации в Древнем Египте. Стремительный и величавый Нил вынес на берег перед дворцом фараона корзину с младенцем. Могущественный правитель усыновил крошечного мальчика и дал ему имя Моисей. Шли годы... Моисей и его брат Рамзес росли вместе. Но придет день, когда один из братьев станет владыкой величайшей империи на земле, а другой - святым... Противоборство героев навсегда изменит их судьбы и историю человечества.

rating

Качество: BDRip 720p
Видео: MPEG-4 AVC, 6163 Кбит/сек, 1280x694, 23.976 кадра/сек
Аудио 1: AC3, 2 ch, 192 Кбит/сек | Русский, профессиональный (полное дублирование) Пифагор
Аудио 2: AC3, 2 ch, 192 Кбит/сек | Русский, профессиональный (полное дублирование) Первый канал
Аудио 3: AC3, 2 ch, 192 Кбит/сек | Русский, профессиональный (двухголосый закадровый) Премьер Мультимедиа, Л.Ильина и В.Андреев
Аудио 4: AC3, 6 ch, 448 Кбит/сек | Русский, профессиональный (двухголосый закадровый)
Аудио 5: AC3, 6 ch, 448 Кбит/сек | Русский, авторский (одноголосый закадровый) Сергей Визгунов
Аудио 6: AC3, 2 ch, 192 Кбит/сек | Русский, авторский (одноголосый закадровый) Николай Антонов
Аудио 7: AC3, 2 ch, 192 Кбит/сек | Украинский, профессиональный (многоголосый закадровый) K1
Аудио 8: AC3, 6 ch, 448 Кбит/сек | Английский, оригинал
Субтитры: Русские, английские
Навигация по главам: Есть

Релиз от:
скриншот  скриншот  скриншот  скриншот  скриншот  
  • x264 [info]: frame I:843 Avg QP:13.94 size:122032
  • x264 [info]: frame P:31706 Avg QP:15.65 size: 57067
  • x264 [info]: frame B:109409 Avg QP:17.00 size: 24200

    ==========================================

    Общее
    Уникальный идентификатор : 202364009615895074966375440364877838480 (0x983DE3FCF4BADEE9BC0B514D437AF890)
    Полное имя : Принц.Египта.1998.BDRip.720p.KORSAR.mkv
    Формат : Matroska
    Версия формата : Version 2
    Размер файла : 5,84 Гбайт
    Продолжительность : 1 ч. 38 м.
    Общий поток : 8469 Кбит/сек
    Дата кодирования : UTC 2018-10-06 19:17:40
    Программа кодирования : mkvmerge v5.8.0 ('No Sleep / Pillow') built on Sep 2 2012 15:37:04
    Библиотека кодирования : libebml v1.2.3 + libmatroska v1.3.0

    Видео
    Идентификатор : 1
    Формат : AVC
    Формат/Информация : Advanced Video Codec
    Профиль формата : High@L4.1
    Настройки формата : CABAC / 9 Ref Frames
    Параметр CABAC формата : Да
    Параметр RefFrames формата : 9 кадров
    Идентификатор кодека : V_MPEG4/ISO/AVC
    Продолжительность : 1 ч. 38 м.
    Битрейт : 6163 Кбит/сек
    Ширина : 1280 пикселей
    Высота : 694 пикселя
    Соотношение сторон : 1,85:1
    Режим частоты кадров : Постоянный
    Частота кадров : 23,976 (24000/1001) кадра/сек
    Цветовое пространство : YUV
    Субдискретизация насыщенности : 4:2:0
    Битовая глубина : 8 бит
    Тип развёртки : Прогрессивная
    Бит/(Пиксели*Кадры) : 0.289
    Размер потока : 4,13 Гбайт (71%)
    Заголовок : RIP | MZMA
    Библиотека кодирования : x264 core 152 r2851kMod ba24899
    Настройки программы : cabac=1 / ref=9 / deblock=1:-3:-3 / analyse=0x3:0x113 / me=umh / subme=11 / psy=1 / fade_compensate=0.00 / psy_rd=1.00:0.00 / mixed_ref=1 / me_range=48 / chroma_me=1 / trellis=2 / 8x8dct=1 / cqm=0 / deadzone=21,11 / fast_pskip=0 / chroma_qp_offset=-2 / threads=6 / lookahead_threads=1 / sliced_threads=0 / nr=0 / decimate=0 / interlaced=0 / bluray_compat=0 / constrained_intra=0 / bframes=16 / b_pyramid=2 / b_adapt=2 / b_bias=0 / direct=3 / weightb=1 / open_gop=0 / weightp=2 / keyint=240 / keyint_min=23 / scenecut=40 / intra_refresh=0 / rc_lookahead=40 / rc=2pass / mbtree=0 / bitrate=6163 / ratetol=1.0 / qcomp=0.60 / qpmin=0 / qpmax=69 / qpstep=4 / cplxblur=20.0 / qblur=0.5 / vbv_maxrate=50000 / vbv_bufsize=62500 / nal_hrd=none / filler=0 / ip_ratio=1.25 / pb_ratio=1.30 / aq=1:1.00
    Язык : English
    По умолчанию : Да
    Принудительно : Нет
    Цветовой диапазон : Limited
    Основные цвета : BT.709
    Характеристики трансфера : BT.709
    Коэффициенты матрицы : BT.709

    Аудио #1
    Идентификатор : 2
    Формат : AC-3
    Формат/Информация : Audio Coding 3
    Идентификатор кодека : A_AC3
    Продолжительность : 1 ч. 38 м.
    Вид битрейта : Постоянный
    Битрейт : 192 Кбит/сек
    Каналы : 2 канала
    Расположение каналов : Front: L R
    Частота : 48,0 КГц
    Частота кадров : 31,250 кадров/сек (1536 SPF)
    Битовая глубина : 16 бит
    Метод сжатия : С потерями
    Размер потока : 136 Мбайт (2%)
    Заголовок : DUB | Пифагор
    Язык : Russian
    По умолчанию : Да
    Принудительно : Нет

    Аудио #2
    Идентификатор : 3
    Формат : AC-3
    Формат/Информация : Audio Coding 3
    Идентификатор кодека : A_AC3
    Продолжительность : 1 ч. 38 м.
    Вид битрейта : Постоянный
    Битрейт : 192 Кбит/сек
    Каналы : 2 канала
    Расположение каналов : Front: L R
    Частота : 48,0 КГц
    Частота кадров : 31,250 кадров/сек (1536 SPF)
    Битовая глубина : 16 бит
    Метод сжатия : С потерями
    Размер потока : 136 Мбайт (2%)
    Заголовок : DUB | Первый канал
    Язык : Russian
    По умолчанию : Нет
    Принудительно : Нет

    Аудио #3
    Идентификатор : 4
    Формат : AC-3
    Формат/Информация : Audio Coding 3
    Идентификатор кодека : A_AC3
    Продолжительность : 1 ч. 38 м.
    Вид битрейта : Постоянный
    Битрейт : 192 Кбит/сек
    Каналы : 2 канала
    Расположение каналов : Front: L R
    Частота : 48,0 КГц
    Частота кадров : 31,250 кадров/сек (1536 SPF)
    Битовая глубина : 16 бит
    Метод сжатия : С потерями
    Размер потока : 136 Мбайт (2%)
    Заголовок : DVO | Премьер Мультимедиа, Л.Ильина и В.Андреев
    Язык : Russian
    По умолчанию : Нет
    Принудительно : Нет

    Аудио #4
    Идентификатор : 5
    Формат : AC-3
    Формат/Информация : Audio Coding 3
    Идентификатор кодека : A_AC3
    Продолжительность : 1 ч. 38 м.
    Вид битрейта : Постоянный
    Битрейт : 448 Кбит/сек
    Каналы : 6 каналов
    Расположение каналов : Front: L C R, Side: L R, LFE
    Частота : 48,0 КГц
    Частота кадров : 31,250 кадров/сек (1536 SPF)
    Битовая глубина : 16 бит
    Метод сжатия : С потерями
    Размер потока : 316 Мбайт (5%)
    Заголовок : DVO
    Язык : Russian
    По умолчанию : Нет
    Принудительно : Нет

    Аудио #5
    Идентификатор : 6
    Формат : AC-3
    Формат/Информация : Audio Coding 3
    Идентификатор кодека : A_AC3
    Продолжительность : 1 ч. 38 м.
    Вид битрейта : Постоянный
    Битрейт : 448 Кбит/сек
    Каналы : 6 каналов
    Расположение каналов : Front: L C R, Side: L R, LFE
    Частота : 48,0 КГц
    Частота кадров : 31,250 кадров/сек (1536 SPF)
    Битовая глубина : 16 бит
    Метод сжатия : С потерями
    Размер потока : 316 Мбайт (5%)
    Заголовок : AVO | С. Визгунов
    Язык : Russian
    По умолчанию : Нет
    Принудительно : Нет

    Аудио #6
    Идентификатор : 7
    Формат : AC-3
    Формат/Информация : Audio Coding 3
    Идентификатор кодека : A_AC3
    Продолжительность : 1 ч. 38 м.
    Вид битрейта : Постоянный
    Битрейт : 192 Кбит/сек
    Каналы : 1 канал
    Расположение каналов : Front: C
    Частота : 48,0 КГц
    Частота кадров : 31,250 кадров/сек (1536 SPF)
    Битовая глубина : 16 бит
    Метод сжатия : С потерями
    Размер потока : 136 Мбайт (2%)
    Заголовок : AVO | Н. Антонов
    Язык : Russian
    По умолчанию : Нет
    Принудительно : Нет

    Аудио #7
    Идентификатор : 8
    Формат : AC-3
    Формат/Информация : Audio Coding 3
    Идентификатор кодека : A_AC3
    Продолжительность : 1 ч. 38 м.
    Вид битрейта : Постоянный
    Битрейт : 192 Кбит/сек
    Каналы : 2 канала
    Расположение каналов : Front: L R
    Частота : 48,0 КГц
    Частота кадров : 31,250 кадров/сек (1536 SPF)
    Битовая глубина : 16 бит
    Метод сжатия : С потерями
    Размер потока : 136 Мбайт (2%)
    Заголовок : MVO | K1
    Язык : Ukrainian
    По умолчанию : Нет
    Принудительно : Нет

    Аудио #8
    Идентификатор : 9
    Формат : AC-3
    Формат/Информация : Audio Coding 3
    Идентификатор кодека : A_AC3
    Продолжительность : 1 ч. 38 м.
    Вид битрейта : Постоянный
    Битрейт : 448 Кбит/сек
    Каналы : 6 каналов
    Расположение каналов : Front: L C R, Side: L R, LFE
    Частота : 48,0 КГц
    Частота кадров : 31,250 кадров/сек (1536 SPF)
    Битовая глубина : 16 бит
    Метод сжатия : С потерями
    Размер потока : 316 Мбайт (5%)
    Заголовок : Original
    Язык : English
    По умолчанию : Нет
    Принудительно : Нет

    Текст #1
    Идентификатор : 10
    Формат : UTF-8
    Идентификатор кодека : S_TEXT/UTF8
    Идентификатор кодека/Информация : UTF-8 Plain Text
    Заголовок : Премьер Мультимедиа
    Язык : Russian
    По умолчанию : Нет
    Принудительно : Нет

    Текст #2
    Идентификатор : 11
    Формат : UTF-8
    Идентификатор кодека : S_TEXT/UTF8
    Идентификатор кодека/Информация : UTF-8 Plain Text
    Заголовок : Павел Левковец
    Язык : Russian
    По умолчанию : Нет
    Принудительно : Нет

    Текст #3
    Идентификатор : 12
    Формат : UTF-8
    Идентификатор кодека : S_TEXT/UTF8
    Идентификатор кодека/Информация : UTF-8 Plain Text
    Заголовок : SDH | 1
    Язык : English
    По умолчанию : Нет
    Принудительно : Нет

    Текст #4
    Идентификатор : 13
    Формат : UTF-8
    Идентификатор кодека : S_TEXT/UTF8
    Идентификатор кодека/Информация : UTF-8 Plain Text
    Заголовок : SDH | 2
    Язык : English
    По умолчанию : Нет
    Принудительно : Нет

    Меню
    00:00:00.000 : en:Deliver Us (Main Title)
    00:04:14.679 : en:The River
    00:08:14.679 : en:Chariot Race
    00:11:07.679 : en:One Weak Link
    00:13:33.679 : en:Rameses' Hiding Place
    00:14:58.679 : en:Desert Flower
    00:19:00.679 : en:You are Our Brother
    00:22:19.679 : en:All I Ever Wanted
    00:24:21.679 : en:Hieroglyph Nightmare
    00:25:53.679 : en:Sacrifice
    00:27:39.679 : en:This is Your Home
    00:29:13.679 : en:Slavery
    00:33:15.679 : en:The Sand Storm
    00:37:23.679 : en:Through Heaven's Eyes
    00:42:09.679 : en:Burning Bush
    00:47:53.679 : en:The MIssion
    00:50:50.679 : en:Let My People Go
    00:53:43.679 : en:Playing with the Big Boys
    00:56:56.679 : en:Rameses vs Moses
    00:59:23.679 : en:Nile of Blood
    01:05:10.679 : en:Plagues
    01:08:12.679 : en:Ultimatum
    01:12:14.679 : en:Death of the First Born
    01:16:56.679 : en:When You Believe
    01:22:23.679 : en:Parting The Red Sea
    01:26:06.679 : en:The Closing of The Red Sea
    01:29:12.679 : en:Goodbye Brother
    01:31:29.679 : en:End Credits
  • piratbit.org



    Скачать Принц Египта через торрент https://i2.imageban.ru/out/2018/10/08/51e954817c208136d9f6912eeedae761.png Скачать фильм Принц Египта через торрент бесплантно в хорошем качестве Описание: Эта история случилась на заре цивилизации в Древнем Египте. Стремительный и величавый Нил вынес на берег перед дворцом фараона ... 10 10 2
    Info! Золотая раздача, скачанное не засчитывается.
    Торрент: Зарегистрирован [2019-07-05 15:40] · скачан: 19 раз
    Статус: √ проверено
    Размер: 5.84 GB
    Как cкачать? Как скачать Принц Египта через торрент | qTorrent

    % Раздел Тема Автор DL S | L
    Зарубежные Мультфильмы (BDRip 1080p, 720p, Blu-ray, BD-Remux) [ 8.23 GB ] Принц Египта / The Prince of Egypt [1998 мультфильм BDRip 1080p] 2xDub + 2xDVO + 2xAVO - KORSAR kisa1980 Скачать
    2 | 0


    >> Регистрируемся здесь <<






    Отзывы и комментарии о схеме читаем и пишем здесь: ---> Отзывы и комментарии о схеме

    Новые благодарочки в телеграм довольных пользователей:
    скриншот   скриншот   скриншот   скриншот   скриншот
      Дорогой пользователь! Огромная просьба, поблагодарите релизера, оцените раздачу и оставьте свои комментарий, если Вы скачали Принц Египта через торрент бесплатно! Внесите свою лепту в развитие PiratBit!
      Комментировать посты могут только пользователи прошедшие не сложную регистрацию
      Показать сообщения:    

      Принц Египта через торрент
      Скачать бесплатно Принц Египта
      Принц Египта скачать торрент
      Принц Египта смотреть онлайн
      Cкачать фильм Принц Египта бесплатно
      Принц Египта скачать торрент в хорошем качестве
      Принц Египта смотреть онлайн бесплатно в хорошем качестве


      Вы не можете начинать темы
      Вы не можете отвечать на сообщения
      Вы не можете редактировать свои сообщения
      Вы не можете удалять свои сообщения
      Вы не можете голосовать в опросах
      Вы не можете прикреплять файлы к сообщениям
      Вы можете скачивать файлы