MEGA NEWS Получи личный уникальный адрес сайта и защити себя от блокировок. Внимание количество ограничено!!!

iTunes

1+1

iTunes

мы

iTunes

1

iTunes

Чернобыль

iTunes

Ральф против интернета

Лицензия

ПШазам

Лицензия

Игра престолов

Лицензия

30
pack

ВАЖНО

!!Акция!!

Alien_RageХит недели

RePack

Resident Evil 21

ИГРА 18+

pack

RePack

Metro:Exodus

!!Акция!!

Alien_Rage

RePack

fifa19

RePack

Assassins Creed: Odyssey

RePack

NEED FOR SPEED™ PAYBACK

3 сезон

9 сезон

Бесстыжие 9 сезон

Все сериалы

все сериалы на PB.wtf

RePack

FAR CRY 5
Ребята, катастрофически не хватает 1900р. для оплаты серверов за АВГУСТ (всвязи с блокировками трафик упал в 3 раза), 1-2р., выручайте.
  

Омен: Перерождение / The Prodigy (Николас МакКарти) [2019, ужасы, триллер, BDRip 1080p, 60 fps] Дубляж [iTunes] piratbit.org

Омен: Перерождение через торрент piratbit.org

Раздают: 2 [ 447 KB/s ]
Размер: 10.1 GB | Добавлен: 3 мес. 12 д. назад | Торрент скачан:97 раз
Скачать  

05-07-2019 16:04 Омен: Перерождение Скачать торрент  

Омен: Перерождение / The Prodigy««Кем он был в прошлых жизнях?»»

Год выпуска: 2019
Страна: США, Гонконг
Жанр: ужасы, триллер
Продолжительность: 01:31:46
Перевод: Дублированный | iTunes
Субтитры: английские
Режиссер: Николас МакКарти
В ролях:

Тейлор Шиллинг (Sarah Blume), Джексон Роберт Скотт (Miles Blume), Питер Муни (John Blume), Колм Фиор (Arthur Jacobson), Пол Фото (Edward Scarka), Бриттани Аллен (Margaret St. James), Паула Бодро (Dr. Elaine Strasser), Элиза Мулчерри (Zoe), Олунике Аделийи (Rebecca), Джанет Лэнд (Sarah's Mother), Мартин Роуч (Dr. Kagan), Байрон Абалос (Penmark Instructor)
Описание:
У молодой пары рождается долгожданный ребёнок. Вскоре малыш Майлс начинает демонстрировать все признаки вундеркинда, и его определяют в специализированную школу для одарённых детей. Но по достижении восьмилетнего возраста поведение мальчика становится асоциальным и пугающим, и родительская гордость сменяется опасением даже за собственную жизнь - мать Майлса начинает считать, что её сыном управляет нечто злобное.
Рейтинг:

MPAA: R - Лицам до 17 лет обязательно присутствие взрослого
Качество: BDRip 1080p
Формат: MKV
Видео: AVC | 1920 x 800 | 59.940 fps | 13.5 Мбит/сек
Аудио #1: AC-3 | 5.1 | 48 kHz | 384 Кбит/сек | 16 bit | Дубляж (iTunes) | RUS |
Аудио #2: DTS-HD MA | 5.1 | 48 kHz | 1509 Кбит/сек | 24 bit | Оригинал | ENG
Навигация по главам: есть

General
Unique ID : 280380455122200805265924381797028661432 (0xD2EF4FBA24C6BF810419CDE2345F08B8)
Complete name : D:\2019 Омен BDRip 1080p 60 fps.mkv
Format : Matroska
Format version : Version 4 / Version 2
File size : 10.1 GiB
Duration : 1h 31mn
Overall bit rate mode : Variable
Overall bit rate : 15.8 Mbps
Movie name : Омен / The Prodigy
Encoded date : UTC 2019-05-13 13:02:48
Writing application : mkvmerge v22.0.0 ('At The End Of The World') 64-bit
Writing library : libebml v1.3.5 + libmatroska v1.4.8
DURATION : 01:31:17.566000000
NUMBER_OF_FRAMES : 1154
NUMBER_OF_BYTES : 30017
_STATISTICS_WRITING_APP : mkvmerge v22.0.0 ('At The End Of The World') 64-bit
_STATISTICS_WRITING_DATE_UTC : 2019-05-13 13:02:48
_STATISTICS_TAGS : BPS DURATION NUMBER_OF_FRAMES NUMBER_OF_BYTES
Video #1
ID : 1
Format : AVC
Format/Info : Advanced Video Codec
Format profile : High@L4.1
Format settings, CABAC : Yes
Format settings, ReFrames : 5 frames
Codec ID : V_MPEG4/ISO/AVC
Duration : 1h 31mn
Bit rate : 13.5 Mbps
Nominal bit rate : 12.0 Mbps
Width : 1 920 pixels
Height : 800 pixels
Display aspect ratio : 2.40:1
Frame rate : 59.940 fps
Color space : YUV
Chroma subsampling : 4:2:0
Bit depth : 8 bits
Scan type : Progressive
Bits/(Pixel*Frame) : 0.147
Stream size : 8.65 GiB (86%)
Writing library : x264 core 146 r2538 121396c
Encoding settings : cabac=1 / ref=5 / deblock=1:-2:-2 / analyse=0x3:0x113 / me=umh / subme=9 / psy=1 / psy_rd=1.00:0.25 / mixed_ref=1 / me_range=32 / chroma_me=1 / trellis=2 / 8x8dct=1 / cqm=0 / deadzone=6,6 / fast_pskip=1 / chroma_qp_offset=-4 / threads=12 / lookahead_threads=2 / sliced_threads=0 / nr=0 / decimate=0 / interlaced=0 / bluray_compat=0 / constrained_intra=0 / bframes=3 / b_pyramid=2 / b_adapt=2 / b_bias=0 / direct=3 / weightb=1 / open_gop=0 / weightp=2 / keyint=600 / keyint_min=60 / scenecut=40 / intra_refresh=0 / rc_lookahead=60 / rc=2pass / mbtree=1 / bitrate=12000 / ratetol=1.0 / qcomp=0.80 / qpmin=0 / qpmax=69 / qpstep=4 / cplxblur=20.0 / qblur=0.5 / vbv_maxrate=50000 / vbv_bufsize=50000 / nal_hrd=none / filler=0 / ip_ratio=1.10 / aq=1:0.50
Language : English
Default : Yes
Forced : No
DURATION : 01:31:46.268000000
NUMBER_OF_FRAMES : 330046
NUMBER_OF_BYTES : 8256912468
_STATISTICS_WRITING_APP : mkvmerge v22.0.0 ('At The End Of The World') 64-bit
_STATISTICS_WRITING_DATE_UTC : 2019-05-13 13:02:48
_STATISTICS_TAGS : BPS DURATION NUMBER_OF_FRAMES NUMBER_OF_BYTES
Audio #2
ID : 2
Format : AC-3
Format/Info : Audio Coding 3
Mode extension : CM (complete main)
Format settings, Endianness : Big
Codec ID : A_AC3
Duration : 1h 31mn
Bit rate mode : Constant
Bit rate : 384 Kbps
Channel(s) : 6 channels
Channel positions : Front: L C R, Side: L R, LFE
Sampling rate : 48.0 KHz
Bit depth : 16 bits
Compression mode : Lossy
Stream size : 252 MiB (2%)
Title : iTunes
Language : Russian
Default : Yes
Forced : Yes
Audio #3
ID : 3
Format : DTS
Format/Info : Digital Theater Systems
Format profile : MA / Core
Codec ID : A_DTS
Duration : 1h 31mn
Bit rate mode : Variable
Bit rate : 1 561 Kbps / 1 510 Kbps
Channel(s) : 6 channels
Channel positions : Front: L C R, Side: L R, LFE
Sampling rate : 48.0 KHz
Bit depth : 24 bits
Compression mode : Lossless / Lossy
Title : Original
Language : English
Default : No
Forced : No
Text #4
ID : 4
Format : UTF-8
Codec ID : S_TEXT/UTF8
Codec ID/Info : UTF-8 Plain Text
Title : SDH
Language : English
Default : No
Forced : No
Menu
00:00:00.000 : ru:Глава 01
00:04:05.704 : ru:Глава 02
00:09:53.384 : ru:Глава 03
00:12:55.441 : ru:Глава 04
00:18:32.528 : ru:Глава 05
00:24:20.626 : ru:Глава 06
00:28:53.774 : ru:Глава 07
00:33:59.913 : ru:Глава 08
00:38:33.937 : ru:Глава 09
00:42:10.027 : ru:Глава 10
00:46:54.895 : ru:Глава 11
00:50:15.429 : ru:Глава 12
00:56:20.919 : ru:Глава 13
01:01:39.279 : ru:Глава 14
01:05:14.911 : ru:Глава 15
01:09:53.523 : ru:Глава 16
01:13:42.501 : ru:Глава 17
01:21:23.670 : ru:Глава 18
01:25:20.907 : ru:Глава 19
01:26:46.368 : ru:Глава 20
piratbit.org



Скачать Омен: Перерождение через торрент https://d.radikal.ru/d17/1907/d6/498a6680fd6a.png Скачать фильм Омен: Перерождение через торрент бесплантно в хорошем качестве Описание: У молодой пары рождается долгожданный ребёнок. Вскоре малыш Майлс начинает демонстрировать все признаки вундеркинда, и его ... 10 10 2
Торрент: Зарегистрирован [2019-07-05 16:04] · скачан: 97 раз
Статус: √ проверено
Размер: 10.1 GB
Как cкачать? Как скачать Омен: Перерождение через торрент | qTorrent

% Раздел Тема Автор DL S | L
Фильмы 2019 [DVDrip, WEB-DLRip, HDrip] (DUB, MVO) [ 1.42 GB ] Омен: Перерождение / The Prodigy [2019 BDRip] - Twi7ter Скачать
84 | 8
Фильмы 2019 [DVDrip, WEB-DLRip, HDrip] (DUB, MVO) [ 1.51 GB ] Омен: Перерождение / The Prodigy [2019 BDRip-AVC] - ExKinoRay Enigma2010 Скачать
124 | 8
Фильмы (WEB-DL 720p, 1080p) [ 4.71 GB ] Омен: Перерождение / The Prodigy [2019 WEB-DL 1080p] bober100 Скачать
12 | 1
Фильмы 2019 [DVDrip, WEB-DLRip, HDrip] (DUB, MVO) [ 1.56 GB ] Омен: Перерождение / The Prodigy [2019 WEB-DLRip-AVC] - ExKinoRay Enigma2010 Скачать
61 | 2
Фильмы 2019 [DVDrip, WEB-DLRip, HDrip] (DUB, MVO) [ 1.42 GB ] Омен: Перерождение / The Prodigy [2019 WEB-DLRip] bober100 Скачать
3 | 0


>> Регистрируемся здесь <<






Отзывы и комментарии о схеме читаем и пишем здесь: ---> Отзывы и комментарии о схеме

Новые благодарочки в телеграм довольных пользователей:
скриншот   скриншот   скриншот   скриншот   скриншот

05-07-2019 16:16 Омен: Перерождение Скачать торрент  

Гумнина piratbit.org



    Дорогой пользователь! Огромная просьба, поблагодарите релизера, оцените раздачу и оставьте свои комментарий, если Вы скачали Омен: Перерождение через торрент бесплатно! Внесите свою лепту в развитие PiratBit!
    Комментировать посты могут только пользователи прошедшие не сложную регистрацию
    Показать сообщения:    

    Омен: Перерождение через торрент
    Скачать бесплатно Омен: Перерождение
    Омен: Перерождение скачать торрент
    Омен: Перерождение смотреть онлайн
    Cкачать фильм Омен: Перерождение бесплатно
    Омен: Перерождение скачать торрент в хорошем качестве
    Омен: Перерождение смотреть онлайн бесплатно в хорошем качестве


    Вы не можете начинать темы
    Вы не можете отвечать на сообщения
    Вы не можете редактировать свои сообщения
    Вы не можете удалять свои сообщения
    Вы не можете голосовать в опросах
    Вы не можете прикреплять файлы к сообщениям
    Вы можете скачивать файлы