Доктор Стрэндж

Лицензия

Добыча

Дубляж

Уэнсдэй

1 сезон

Тор

Дубляж

В эфире

Дубляж

Там, где раки поют

MVO

Властелин колец

1 сезон

Deluxe

pack

Рекомендуем

30

Пиратка

ВАЖНО

ВАЖНО

Ghostwire

Пиратка

jed

RePack

nioh2

RePack

RDR2

RePack

NEED FOR SPEED™ PAYBACK

RePack

скачать торрент

Кинопоиск HD

Острые козырьки 6 сезон

6 сезон

FAR CRY 6

RePack

скачать торрент

Лицензия

скачать торрент

MVO

1

1 сезон

скачать торрент

1 сезон

скачать торрент

Лицензия

  

Будь моим сыном / Tu seras mon fils (Жиль Легран) [2011, драма, триллер, BDRip 1080p ] DVO

Будь моим сыном через торрент piratbit.org

Размер: 11.38 GB | Добавлен: 3 года 5 мес. назад | Торрент скачан:6 раз
Смотреть онлайн | Скачать   

06-07-2019 04:55 Будь моим сыном Скачать торрент  

Название: Будь моим сыном
Оригинальное название: Tu seras mon fils
Год выпуска: 2011
Страна: Франция
Жанр: драма, триллер
Продолжительность: 01:41:26
Перевод: закадровый двухголосый

Режиссер: Жиль Легран
В ролях: Нильс Ареструп, Лоран Дойч, Патрик Шенэ, Энн Маривин, Николя Бриде, Валери Мересс, Жан-Марк Руло, Юрбен Канселье, Ксавье Робик, Николя Марье, Элен де Сен-Пер, Ширли Буске, Стефан Роке, Жиль Кассар, Люк Палюн

Описание: Пол де Марсеул, владелец престижной винодельни в Сент-Эмильоне, имеет сына Мартина, который работает в семейном поместье. Однако Пол, требовательный и страстный винодел, вовсе не одобряет того, чтоб его сын стал его преемником. Он мечтает о самом талантливом, трудолюбивом и харизматичном сыне, который бы соответствовал всем его фантазиям. Прибытие второго сына, менеджера Филиппа, полностью меняет жизнь поместья. В нём Пол видит своего идеального сына, о котором столько мечтал. Начинается сложная игра с четырьмя участниками: двумя детьми и двумя родителями, в котором, по меньшей мере, одному из них совершенно нечего терять...



Качество: BDRip 1080p
Формат: MKV
Видео: MPEG-4 AVC, 13 Mбит/с, 1920х796, 24 кадр/с
Аудио 1: русский, DTS, 1509 kbps, 6 ch, 48 kHz [закадровый двухголосый, Владислав Данилов, Алёна Соколова]
Аудио 2: французский, DTS, 1509 kbps, 6 ch, 48 kHz [оригинал]
Субтитры 1: русские
Субтитры 2: английские
Главы/чаптеры
Общее
Уникальный идентификатор : 227860536725175830433052940727783306639 (0xAB6C57D43E209A1FA3F9C8E1BB90B58F)
Полное имя : D:\Video\Будь моим сыном.2011.BDRip 1080p by msltel.mkv
Формат : Matroska
Версия формата : Version 4
Размер файла : 11,4 Гбайт
Продолжительность : 1 ч. 41 м.
Общий поток : 16,1 Мбит/сек
Название фильма : Rip by msltel
Дата кодирования : UTC 2019-07-06 01:36:07
Программа кодирования : mkvmerge v8.2.0 ('World of Adventure') 64bit
Библиотека кодирования : libebml v1.3.1 + libmatroska v1.4.2

Видео
Идентификатор : 1
Формат : AVC
Формат/Информация : Advanced Video Codec
Профиль формата : High@L4.1
Настройки формата : CABAC / 4 Ref Frames
Параметр CABAC формата : Да
Параметр RefFrames формата : 4 кадра
Идентификатор кодека : V_MPEG4/ISO/AVC
Продолжительность : 1 ч. 41 м.
Битрейт : 13,0 Мбит/сек
Ширина : 1920 пикселей
Высота : 796 пикселей
Соотношение сторон : 2,40:1
Режим частоты кадров : Постоянный
Частота кадров : 24,000 кадра/сек
Цветовое пространство : YUV
Субдискретизация насыщенности : 4:2:0
Битовая глубина : 8 бит
Тип развёртки : Прогрессивная
Бит/(Пиксели*Кадры) : 0.355
Размер потока : 9,24 Гбайт (81%)
Библиотека кодирования : x264 core 157 r2935 545de2f
Настройки программы : cabac=1 / ref=4 / deblock=1:-2:-2 / analyse=0x3:0x113 / me=umh / subme=11 / psy=1 / psy_rd=1.00:0.15 / mixed_ref=1 / me_range=32 / chroma_me=1 / trellis=2 / 8x8dct=1 / cqm=0 / deadzone=21,11 / fast_pskip=0 / chroma_qp_offset=-3 / threads=6 / lookahead_threads=1 / sliced_threads=0 / nr=0 / decimate=1 / interlaced=0 / bluray_compat=0 / constrained_intra=0 / bframes=12 / b_pyramid=2 / b_adapt=2 / b_bias=0 / direct=1 / weightb=1 / open_gop=0 / weightp=2 / keyint=230 / keyint_min=23 / scenecut=40 / intra_refresh=0 / rc_lookahead=40 / rc=crf / mbtree=1 / crf=17.5 / qcomp=0.60 / qpmin=0 / qpmax=69 / qpstep=4 / vbv_maxrate=50000 / vbv_bufsize=62500 / crf_max=0.0 / nal_hrd=none / filler=0 / ip_ratio=1.40 / aq=1:1.00
Язык : French
Default : Да
Forced : Нет

Аудио #1
Идентификатор : 2
Формат : DTS
Формат/Информация : Digital Theater Systems
Идентификатор кодека : A_DTS
Продолжительность : 1 ч. 41 м.
Вид битрейта : Постоянный
Битрейт : 1509 Кбит/сек
Каналы : 6 каналов
ChannelLayout : C L R Ls Rs LFE
Частота : 48,0 КГц
Частота кадров : 93,750 кадра/сек (512 SPF)
Битовая глубина : 16 бит
Метод сжатия : С потерями
Размер потока : 1,07 Гбайт (9%)
Заголовок : DVO Владислав Данилов, Алёна Соколова
Язык : Russian
Default : Да
Forced : Нет

Аудио #2
Идентификатор : 3
Формат : DTS
Формат/Информация : Digital Theater Systems
Идентификатор кодека : A_DTS
Продолжительность : 1 ч. 41 м.
Вид битрейта : Постоянный
Битрейт : 1509 Кбит/сек
Каналы : 6 каналов
ChannelLayout : C L R Ls Rs LFE
Частота : 48,0 КГц
Частота кадров : 93,750 кадра/сек (512 SPF)
Битовая глубина : 16 бит
Метод сжатия : С потерями
Размер потока : 1,07 Гбайт (9%)
Заголовок : original
Язык : French
Default : Нет
Forced : Нет

Текст #1
Идентификатор : 4
Формат : UTF-8
Идентификатор кодека : S_TEXT/UTF8
Идентификатор кодека/Информация : UTF-8 Plain Text
Продолжительность : 1 ч. 36 м.
Битрейт : 74 бит/сек
ElementCount : 1169
Размер потока : 52,9 Кбайт (0%)
Заголовок : русские
Язык : Russian
Default : Нет
Forced : Нет

Текст #2
Идентификатор : 5
Формат : UTF-8
Идентификатор кодека : S_TEXT/UTF8
Идентификатор кодека/Информация : UTF-8 Plain Text
Продолжительность : 1 ч. 36 м.
Битрейт : 49 бит/сек
ElementCount : 1172
Размер потока : 35,2 Кбайт (0%)
Заголовок : английские
Язык : English
Default : Нет
Forced : Нет

Меню
00:00:00.000 : :Chapter 1
00:09:30.750 : :Chapter 2
00:15:17.583 : :Chapter 3
00:22:50.666 : :Chapter 4
00:33:19.125 : :Chapter 5
00:38:43.750 : :Chapter 6
00:46:40.708 : :Chapter 7
00:56:03.958 : :Chapter 8
01:02:03.125 : :Chapter 9
01:18:10.291 : :Chapter 10
01:26:37.166 : :Chapter 11
01:38:41.541 : :Chapter 12



Скачать Будь моим сыном через торрент https://d.radikal.ru/d34/1907/48/270805af5913.jpg Скачать, смотреть онлайн Будь моим сыном бесплантно в хорошем качестве Описание: Пол де Марсеул, владелец престижной винодельни в Сент-Эмильоне, имеет сына Мартина, который работает в семейном поместье. Однако ... 5 10 1
Торрент: Зарегистрирован [2019-07-06 04:55] · скачан: 6 раз
Статус: √ проверено
Размер: 11.38 GB
Как cкачать? Как скачать Будь моим сыном через торрент | UTorrent

% Раздел Тема Автор DL S | L
Фильмы [HD 720p, 1080p] (Звук Cam, VO, DVO) [ 4.1 GB ] Будь моим сыном / Tu seras mon fils | | 720p msltel Скачать
1 | 0

28-11-2019 20:33  


Отключить вcю реклaмy на сайте, в т.ч. и в плеере онлайн просмотра!

    Дорогой пользователь! Огромная просьба, поблагодарите релизера, оцените раздачу и оставьте свои комментарий, если Вы скачали Будь моим сыном через торрент бесплатно!!
    Комментировать посты могут только пользователи прошедшие не сложную регистрацию
    Показать сообщения:    


    Будь моим сыном через торрент
    Скачать бесплатно Будь моим сыном
    Будь моим сыном скачать торрент
    Будь моим сыном смотреть онлайн
    Cкачать фильм Будь моим сыном бесплатно
    Будь моим сыном скачать торрент в хорошем качестве
    Будь моим сыном смотреть онлайн бесплатно в хорошем качестве
    Вы не можете начинать темы
    Вы не можете отвечать на сообщения
    Вы не можете редактировать свои сообщения
    Вы не можете удалять свои сообщения
    Вы не можете голосовать в опросах
    Вы не можете прикреплять файлы к сообщениям
    Вы можете скачивать файлы
    Будь моим сыном / Tu seras mon fils [2011, драма, триллер, BDRip 1080p ] DVO смотреть онлайн, скачать торрент picoco.icu