Доктор Стрэндж

Лицензия

Добыча

MVO

Дом дракона

1 сезон

Тор

Лицензия

Мэверик

Лицензия

Там, где раки поют

MVO

Властелин колец

1 сезон

Ultimate

pack

Рекомендуем

30

Repack

ВАЖНО

ВАЖНО

Ghostwire

RePack

jed

RePack

nioh2

RePack

RDR2

RePack

NEED FOR SPEED™ PAYBACK

RePack

скачать торрент

Кинопоиск HD

Острые козырьки 6 сезон

6 сезон

FAR CRY 6

RePack

скачать торрент

Лицензия

скачать торрент

MVO

1

1 сезон

скачать торрент

1 сезон

скачать торрент

Лицензия

  

Путь на арену (Левон Исаакян, Генрих Малян) [1963, СССР, комедия, биография, DVDRip от AVP Studio]

Путь на арену через торрент piratbit.org

Размер: 745 MB | Добавлен: 3 года 2 мес. назад | Торрент скачан:16 раз
Смотреть онлайн Путь на арену | Скачать   

09-07-2019 07:56 Путь на арену Скачать торрент  

Путь на арену
Страна: СССР
Производство: комедия, биография

Жанр: драма
Год выпуска: 1963
Продолжительность: 01:14:48

Перевод: Не требуется
Cубтитры: нет
Оригинальная аудиодорожка: русский

Режиссер: Левон Исаакян, Генрих Малян

В ролях:
Леонид Енгибаров, Ирина Шестуа, Изабелла Данзас, Гайк Данзас, Вардуи Вардересян, Карп Хачванкян, Владимир Татосов, Гурген Ген, Степан Исаакян-Серебряков, Борис Асатурян, Рафаил Асатурян...
Об актёрах подробней

Описание:
Младший сын профессора Енгибаряна мечтает стать клоуном и смешить людей. Ведь это так просто — думает Леня. Главный режиссер цирка считает иначе, но, подметив в парне неординарные способности, принимает его в свой коллектив униформистом. Леня влюбляется в артистку Ирину, Ирина влюбляется в будущего клоуна Леонида Енгибарова и принимает самое активное участие в его судьбе…

Источник: DVD5 R5
Качество видео: DVDRip
Формат видео: AVI

Видео: 688х512 (4:3), 25,000 fps, XviD ~ 1190 kbps avg, 0.135 bit/pixel
Аудио: 48 kHz, Dolby Digital AC3 2.0, 192 kbps

Раздача от:
Общее
Полное имя : Put.na.arenu.1963.DVDRip_[New-team]_by_AVP_Studio.avi
Формат : AVI
Формат/Информация : Audio Video Interleave
Размер файла : 745 Мбайт
Продолжительность : 1 ч. 14 м.
Общий поток : 1392 Кбит/сек
Программа кодирования : VirtualDubMod 1.5.10.3 | www.virtualdub-fr.org || (build 2550/release)
Библиотека кодирования : VirtualDubMod build 2550/release

Видео
Идентификатор : 0
Формат : MPEG-4 Visual
Профиль формата : Advanced Simple@L5
Настройки формата : BVOP1 / Custom Matrix
Параметр BVOP формата : 1
Параметр QPel формата : Нет
Параметр GMC формата : Без точки перехода
Параметр матрицы формата : Выборочная
Идентификатор кодека : XVID
Идентификатор кодека/Подсказка : XviD
Продолжительность : 1 ч. 14 м.
Битрейт : 1190 Кбит/сек
Ширина : 688 пикселей
Высота : 512 пикселей
Соотношение сторон : 4:3
Частота кадров : 25,000 кадров/сек
Цветовое пространство : YUV
Субдискретизация насыщенности : 4:2:0
Битовая глубина : 8 бит
Тип развёртки : Прогрессивная
Метод сжатия : С потерями
Бит/(Пиксели*Кадры) : 0.135
Размер потока : 637 Мбайт (86%)
Библиотека кодирования : XviD 73

Аудио
Идентификатор : 1
Формат : AC-3
Формат/Информация : Audio Coding 3
Коммерческое название : Dolby Digital
Идентификатор кодека : 2000
Продолжительность : 1 ч. 14 м.
Вид битрейта : Постоянный
Битрейт : 192 Кбит/сек
Каналы : 2 канала
ChannelLayout : L R
Частота : 48,0 КГц
Частота кадров : 31,250 кадров/сек (1536 SPF)
Битовая глубина : 16 бит
Метод сжатия : С потерями
Размер потока : 103 Мбайт (14%)
Выравнивание : Разделение по промежуткам
Продолжительность промежутка : 40 мс. (1,00 видеокадр)
Время предзагрузки промежутка : 500 мс



Скачать Путь на арену через торрент http://d.radikal.ru/d12/1912/d7/4e22555509d0.png Скачать, смотреть онлайн Путь на арену бесплантно в хорошем качестве Описание:Младший сын профессора Енгибаряна мечтает стать клоуном и смешить людей. Ведь это так просто — думает Леня. Главный режиссер цирка ... 5 10 1
Торрент: Зарегистрирован [2019-07-09 07:56] · скачан: 16 раз
Статус: √ проверено
Размер: 745 MB
Как cкачать? Как скачать Путь на арену через торрент | UTorrent

% Раздел Тема Автор DL S | L
Кино СССР [ 1.09 GB ] Путь на арену | | DVDRip-AVC от AVP Studio AVP Studio Скачать
1 | 0

28-11-2019 20:33  

Отключить вcю реклaмy на сайте

    Дорогой пользователь! Огромная просьба, поблагодарите релизера, оцените раздачу и оставьте свои комментарий, если Вы скачали Путь на арену через торрент бесплатно!!
    Комментировать посты могут только пользователи прошедшие не сложную регистрацию
    Показать сообщения:    


    Путь на арену через торрент
    Скачать бесплатно Путь на арену
    Путь на арену скачать торрент
    Путь на арену смотреть онлайн
    Cкачать фильм Путь на арену бесплатно
    Путь на арену скачать торрент в хорошем качестве
    Путь на арену смотреть онлайн бесплатно в хорошем качестве
    Вы не можете начинать темы
    Вы не можете отвечать на сообщения
    Вы не можете редактировать свои сообщения
    Вы не можете удалять свои сообщения
    Вы не можете голосовать в опросах
    Вы не можете прикреплять файлы к сообщениям
    Вы можете скачивать файлы