новый адрес пиратбит piratbit
Мега распродажа FORZA HORIZON 4 ULTIMATE+ВСЕ DLC+ОНЛАЙН всего за 499р. 349 руб. (супер цена). Внимание количество ограничено!!!

iTunes

1+1

iTunes

мы

iTunes

1

iTunes

Чернобыль

iTunes

Ральф против интернета

Лицензия

ПШазам

Лицензия

Игра престолов

Лицензия

30
pack

ВАЖНО

!!Акция!!

Alien_RageХит недели

RePack

Resident Evil 21

ИГРА 18+

pack

RePack

Metro:Exodus

!!Акция!!

Alien_Rage

RePack

fifa19

RePack

Assassins Creed: Odyssey

RePack

NEED FOR SPEED™ PAYBACK

3 сезон

9 сезон

Бесстыжие 9 сезон

Все сериалы

все сериалы на PB.wtf

RePack

FAR CRY 5
Ребята, катастрофически не хватает 1900р. для оплаты серверов за Октябрь (всвязи с блокировками трафик упал в 3 раза), 1-2р., выручайте.
  

Алита: Боевой ангел / Alita: Battle Angel (Роберт Родригес) [2019, фантастика, боевик, триллер, мелодрама, приключения, UHD WEB-DL 2160p] [SDR] DUB [iTunes] + MVO [CВ Студия] piratbit.org

Алита: Боевой ангел через торрент piratbit.org

Раздают: 1 [ 0 KB/s ]
Размер: 21.83 GB | Добавлен: 4 мес. 1 д. назад | Торрент скачан:118 раз
Скачать  

09-07-2019 12:25 Алита: Боевой ангел Скачать торрент  

Алита: Боевой ангел / Alita: Battle Angel««Ангел падёт, и восстанет воин»»

Год выпуска: 2019
Страна: Канада, Аргентина, США
Жанр: Фантастика, боевик, триллер, мелодрама, приключения
Продолжительность: 02:01:57
Перевод: Дублированный, профессиональный многоголосый
Субтитры: Русские, Английские
В ролях:

Роза Салазар (Alita), Кристоф Вальц (Dr. Dyson Ido), Дженнифер Коннелли (Chiren), Махершала Али (Vector), Эд Скрейн (Zapan), Джеки Эрл Хейли (Grewishka), Киан Джонсон (Hugo), Хорхе Лендеборг мл. (Tanji), Лана Кондор (Koyomi), Идара Виктор (Nurse Gerhad), Джефф Фэйи (McTeague), Эйса Гонсалес (Nyssiana)
Описание:
Действие фильма происходит через 300 лет после Великой войны в XXVI веке. Доктор Идо находит останки женщины-киборга. После починки киборг ничего не помнит, но обнаруживает, что в состоянии пользоваться боевыми приемами киборгов. Начинаются поиски утерянных воспоминаний.
Рейтинг:

MPAA: PG-13 - Детям до 13 лет просмотр не желателен
Качество: UHD WEB-DL 2160p | SDR
Формат: MKV
Видео: HEVC, 24.5 Mбит/с, 3840x1608, 23.976 Кадр/с, 10 Бит
Аудио 1: AC3, 6 ch, 384 Kbps - дубляж iTunes
Аудио 2: AC3, 2 ch, 192 Kbps - Русский (Профессиональный многоголосый закадровый - CВ Студия)
Аудио 3: E-AC3+Atmos, 6 ch, 576 Kbps - Английский
Навигация по главам: есть

Movie name : Alita: Battle Angel (2019) 2160p WEB-DL x265 10bit SDR
Encoded date : UTC 2019-07-11 20:38:19
Writing application : mkvmerge v34.0.0 ('Sight and Seen') 64-bit
Writing library : libebml v1.3.7 + libmatroska v1.5.0

Video
ID : 1
Format : HEVC
Format/Info : High Efficiency Video Coding
Format profile : Main 10@L5@High
Codec ID : V_MPEGH/ISO/HEVC
Duration : 2 h 1 min
Bit rate : 24.5 Mb/s
Width : 3 840 pixels
Height : 1 608 pixels
Original height : 2 160 pixels
Display aspect ratio : 16:9
Frame rate mode : Constant
Frame rate : 23.976 (24000/1001) FPS
Color space : YUV
Chroma subsampling : 4:2:0 (Type 2)
Bit depth : 10 bits
Bits/(Pixel*Frame) : 0.165
Stream size : 20.8 GiB (95%)
Title : DEFLATE
Language : English
Default : Yes
Forced : No
Color range : Limited
Color primaries : BT.709
Transfer characteristics : BT.709
Matrix coefficients : BT.709

Audio #1
ID : 2
Format : AC-3
Format/Info : Audio Coding 3
Commercial name : Dolby Digital
Codec ID : A_AC3
Duration : 2 h 1 min
Bit rate mode : Constant
Bit rate : 384 kb/s
Channel(s) : 6 channels
Channel layout : L R C LFE Ls Rs
Sampling rate : 48.0 kHz
Frame rate : 31.250 FPS (1536 SPF)
Bit depth : 16 bits
Compression mode : Lossy
Stream size : 335 MiB (1%)
Title : iTunes
Language : Russian
Service kind : Complete Main
Default : Yes
Forced : No

Audio #2
ID : 3
Format : AC-3
Format/Info : Audio Coding 3
Commercial name : Dolby Digital
Codec ID : A_AC3
Duration : 2 h 1 min
Bit rate mode : Constant
Bit rate : 192 kb/s
Channel(s) : 2 channels
Channel layout : L R
Sampling rate : 48.0 kHz
Frame rate : 31.250 FPS (1536 SPF)
Bit depth : 16 bits
Compression mode : Lossy
Stream size : 167 MiB (1%)
Title : MVO [СВ Студия]
Language : Russian
Service kind : Complete Main
Default : No
Forced : No

Audio #3
ID : 4
Format : E-AC-3 JOC
Format/Info : Enhanced AC-3 with Joint Object Coding
Commercial name : Dolby Digital Plus with Dolby Atmos
Codec ID : A_EAC3
Duration : 2 h 1 min
Bit rate mode : Constant
Bit rate : 576 kb/s
Channel(s) : 6 channels
Channel layout : L R C LFE Ls Rs
Sampling rate : 48.0 kHz
Frame rate : 31.250 FPS (1536 SPF)
Compression mode : Lossy
Delay relative to video : 83 ms
Stream size : 502 MiB (2%)
Language : English
Service kind : Complete Main
Default : No
Forced : No
Complexity index : 16
Number of dynamic objects : 15
Bed channel count : 1 channel
Bed channel configuration : LFE

Text #1
ID : 5
Format : UTF-8
Codec ID : S_TEXT/UTF8
Codec ID/Info : UTF-8 Plain Text
Duration : 25 min 5 s
Bit rate : 0 b/s
Count of elements : 2
Stream size : 178 Bytes (0%)
Title : forced
Language : Russian
Default : Yes
Forced : Yes

Text #2
ID : 6
Format : UTF-8
Codec ID : S_TEXT/UTF8
Codec ID/Info : UTF-8 Plain Text
Duration : 1 h 56 min
Bit rate : 64 b/s
Count of elements : 1318
Stream size : 55.4 KiB (0%)
Title : full
Language : Russian
Default : No
Forced : No

Text #3
ID : 7
Format : UTF-8
Codec ID : S_TEXT/UTF8
Codec ID/Info : UTF-8 Plain Text
Duration : 1 h 55 min
Bit rate : 40 b/s
Count of elements : 1347
Stream size : 34.0 KiB (0%)
Title : full
Language : English
Default : No
Forced : No

Text #4
ID : 8
Format : UTF-8
Codec ID : S_TEXT/UTF8
Codec ID/Info : UTF-8 Plain Text
Duration : 1 h 55 min
Bit rate : 45 b/s
Count of elements : 1588
Stream size : 38.5 KiB (0%)
Title : SDH
Language : English
Default : No
Forced : No

Menu
00:00:01.000 : en:Chapter 01
00:03:29.000 : en:Chapter 02
00:07:52.000 : en:Chapter 03
00:10:08.000 : en:Chapter 04
00:13:07.000 : en:Chapter 05
00:15:07.000 : en:Chapter 06
00:18:05.000 : en:Chapter 07
00:22:59.000 : en:Chapter 08
00:25:36.000 : en:Chapter 09
00:31:41.000 : en:Chapter 10
00:33:30.000 : en:Chapter 11
00:36:33.000 : en:Chapter 12
00:38:31.000 : en:Chapter 13
00:42:06.000 : en:Chapter 14
00:45:59.000 : en:Chapter 15
00:48:32.000 : en:Chapter 16
00:52:58.000 : en:Chapter 17
00:55:15.000 : en:Chapter 18
01:00:40.000 : en:Chapter 19
01:02:57.000 : en:Chapter 20
01:05:17.000 : en:Chapter 21
01:10:51.000 : en:Chapter 22
01:13:38.000 : en:Chapter 23
01:16:36.000 : en:Chapter 24
01:18:53.000 : en:Chapter 25
01:22:49.000 : en:Chapter 26
01:24:56.000 : en:Chapter 27
01:28:26.000 : en:Chapter 28
01:33:19.000 : en:Chapter 29
01:36:09.000 : en:Chapter 30
01:41:55.000 : en:Chapter 31
01:45:24.000 : en:Chapter 32
01:48:17.000 : en:Chapter 33
01:51:44.000 : en:Chapter 34
01:54:44.000 : en:Chapter 35
01:56:52.000 : en:Chapter 36
piratbit.org



Скачать Алита: Боевой ангел через торрент https://d.radikal.ru/d20/1907/b0/6e9e48d7afeb.png Скачать фильм Алита: Боевой ангел через торрент бесплантно в хорошем качестве Описание: Действие фильма происходит через 300 лет после Великой войны в XXVI веке. Доктор Идо находит останки женщины-киборга. После ... 9.7 10 9
Торрент: Зарегистрирован [2019-07-12 01:12] · скачан: 118 раз
Статус: √ проверено
Размер: 21.83 GB
Как cкачать? Как скачать Алита: Боевой ангел через торрент | qTorrent

% Раздел Тема Автор DL S | L
Фильмы 2019 [DVDrip, WEB-DLRip, HDrip] (DUB, MVO) [ 2.86 GB ] Алита: Боевой ангел / Alita: Battle Angel [2019 BDRip-AVC] [Локализованная версия] DUB [ BD CEE] - ExKinoRay Enigma2010 Скачать
58 | 5
Фильмы 2019 [DVDrip, WEB-DLRip, HDrip] (DUB, MVO) [ 2.18 GB ] Алита: Боевой ангел / Alita: Battle Angel [2019 BDRip] - [] Twi7ter Скачать
168 | 5
Фильмы 2019 [DVDrip, WEB-DLRip, HDrip] (DUB, MVO) [ 1.46 GB ] Алита: Боевой ангел / Alita: Battle Angel [2019 BDRip] [Локализованная версия] DUB [ BD CEE] bober100 Скачать
14 | 0
Ultra HD (UHD: 2K, 4K, 8K) — видео сверхвысокой чёткости [ 37.56 GB ] Алита: Боевой ангел / Alita: Battle Angel [2019 UHD BDRemux 2160p] [Dolby Vision TV] DUB + 2xMVO sheker187 Скачать
3 | 0
Фильмы (HD 720p, 1080p) (48-60 fps) [ 8.55 GB ] Алита: Боевой ангел / Alita: Battle Angel [2019 BDRip 1080p 60fps Dub MVO Original] [Локализованная версия] Tiberiumsun69 Скачать
157 | 5
Ultra HD (UHD: 2K, 4K, 8K) — видео сверхвысокой чёткости [ 45.58 GB ] Алита: Боевой ангел / Alita: Battle Angel [2019 UHD BDRemux 2160p] DUB [] [HDR10 sheker187 Скачать
2 | 0
Фильмы [HD 720p, 1080p] (Хороший звук DUB, MVO) [ 8.75 GB ] Алита: Боевой ангел / Alita: Battle Angel [2019 BDRip 1080p] DUB [] 2xMVO [CВ Студия HDRezka Studio] bober100 Скачать
11 | 0


>> Регистрируемся здесь <<






Отзывы и комментарии о схеме читаем и пишем здесь: ---> Отзывы и комментарии о схеме

Новые благодарочки в телеграм довольных пользователей:
скриншот   скриншот   скриншот   скриншот   скриншот

16-07-2019 04:07 Алита: Боевой ангел Скачать торрент  

Топик был перенесен из форума Ultra HD (UHD: 2K, 4K, 8K) — видео сверхвысокой чёткости в форум Для поглощённых раздач

Причина переноса: Алита: Боевой ангел / Alita: Battle Angel
bober100piratbit.org



    Дорогой пользователь! Огромная просьба, поблагодарите релизера, оцените раздачу и оставьте свои комментарий, если Вы скачали Алита: Боевой ангел через торрент бесплатно! Внесите свою лепту в развитие PiratBit!
    Комментировать посты могут только пользователи прошедшие не сложную регистрацию
    Показать сообщения:    

    Алита: Боевой ангел через торрент
    Скачать бесплатно Алита: Боевой ангел
    Алита: Боевой ангел скачать торрент
    Алита: Боевой ангел смотреть онлайн
    Cкачать фильм Алита: Боевой ангел бесплатно
    Алита: Боевой ангел скачать торрент в хорошем качестве
    Алита: Боевой ангел смотреть онлайн бесплатно в хорошем качестве


    Вы не можете начинать темы
    Вы не можете отвечать на сообщения
    Вы не можете редактировать свои сообщения
    Вы не можете удалять свои сообщения
    Вы не можете голосовать в опросах
    Вы не можете прикреплять файлы к сообщениям
    Вы можете скачивать файлы