Ссылка на приватное зеркало нашего сайта всего за 1$. Внимание количество ограничено!!!

2 сезон

iTunes

1 сезон

1

iTunes

iTunes

iTunes

1 сезон

RePack

30

ИГРА 18+

pack

ВАЖНО

!!Акция!!

Alien_RageХит недели

RePack

MK11
pack

Забери бонус

RePack

jed

!!Акция!!

Alien_Rage

RePack

fifa19

RePack

Assassins Creed: Odyssey

RePack

NEED FOR SPEED™ PAYBACK

4 сезон

9 сезон

Бесстыжие 9 сезон

Все сериалы

все сериалы на PB.wtf

RePack

FAR CRY 5
  

Бегство Логана / Logan's run (Майкл Андерсон / Michael Anderson) [1976 г., Фантастика, приключения, BDRip 720p от KORSAR][MVO] piratbit.org

Бегство Логана через торрент piratbit.org

Размер: 6.43 GB | Добавлен: 1 год 3 мес. назад | Торрент скачан:4 раза
Скачать  

10-07-2019 08:29 Бегство Логана Скачать торрент  

Название: Бегство Логана
Оригинальное название: Logan's run
Год выпуска: 1976
Жанр: Фантастика, приключения
Продолжительность: 01:58:32
Перевод: Профессиональный многоголосый
Выпущено: США, Metro-Goldwyn-Mayer (MGM)

Режиссер: Майкл Андерсон
В ролях: Майкл Йорк, Ричард Джордан, Дженни Агаттер, Роско Ли Браун, Фарра Фосетт, Майкл Андерсон мл., Питер Устинов, Рэндольф Робертс, Лара Линдсэй, Гари Морган

Описание: Поощряя свободу и вседозволенность, общество 2274 года определяет лишь возрастную границу: люди должны жить только до 30 лет. Полицейский Логан осуществляет контроль над тем, чтобы взбунтовавшиеся против этих порядков не избежали участи поголовной экзекуции, но вскоре он сам задумывается над происходящим...

rating

Качество: BDRip 720p
Формат: MKV
Видео: MPEG-4 AVC, 7124 Кбит/сек, 1272x530, 23,976 кадра/сек
Аудио #1: AC3, 2 ch, 192 Кбит/сек | Русский, профессиональный (многоголосый закадровый) НТВ+
Аудио #2: AC3, 6 ch, 448 Кбит/сек | Английский, оригинал
Субтитры: Русские, английские
Навигация по главам: Есть

Релиз от:
x264 [info]: frame I:1155 Avg QP:16.57 size:107880
x264 [info]: frame P:31482 Avg QP:18.41 size: 61341
x264 [info]: frame B:137871 Avg QP:20.07 size: 31023
-----------------------------------------------------
Общее
Уникальный идентификатор : 185621422805031138007364022598642850602 (0x8BA562B9F54E3280B107FA770F4E5B2A)
Полное имя : Бегство.Логана.1976.BDRip.720p.KORSAR.mkv
Формат : Matroska
Версия формата : Version 2
Размер файла : 6,43 Гбайт
Продолжительность : 1 ч. 58 м.
Общий поток : 7766 Кбит/сек
Дата кодирования : UTC 2018-11-11 08:55:31
Программа кодирования : mkvmerge v5.8.0 ('No Sleep / Pillow') built on Sep 2 2012 15:37:04
Библиотека кодирования : libebml v1.2.3 + libmatroska v1.3.0

Видео
Идентификатор : 1
Формат : AVC
Формат/Информация : Advanced Video Codec
Профиль формата : High@L4.1
Настройки формата : CABAC / 12 Ref Frames
Параметр CABAC формата : Да
Параметр RefFrames формата : 12 кадров
Идентификатор кодека : V_MPEG4/ISO/AVC
Продолжительность : 1 ч. 58 м.
Битрейт : 7124 Кбит/сек
Ширина : 1272 пикселя
Высота : 530 пикселей
Соотношение сторон : 2,40:1
Режим частоты кадров : Постоянный
Частота кадров : 23,976 (24000/1001) кадра/сек
Цветовое пространство : YUV
Субдискретизация насыщенности : 4:2:0
Битовая глубина : 8 бит
Тип развёртки : Прогрессивная
Бит/(Пиксели*Кадры) : 0.441
Размер потока : 5,77 Гбайт (90%)
Заголовок : RIP | MZMA
Библиотека кодирования : x264 core 152 r2851kMod ba24899
Настройки программы : cabac=1 / ref=12 / deblock=1:-2:-2 / analyse=0x3:0x113 / me=umh / subme=11 / psy=1 / fade_compensate=0.00 / psy_rd=1.00:0.00 / mixed_ref=1 / me_range=48 / chroma_me=1 / trellis=2 / 8x8dct=1 / cqm=0 / deadzone=21,11 / fast_pskip=0 / chroma_qp_offset=-2 / threads=6 / lookahead_threads=1 / sliced_threads=0 / nr=0 / decimate=0 / interlaced=0 / bluray_compat=0 / constrained_intra=0 / bframes=16 / b_pyramid=2 / b_adapt=2 / b_bias=0 / direct=3 / weightb=1 / open_gop=0 / weightp=2 / keyint=240 / keyint_min=23 / scenecut=40 / intra_refresh=0 / rc_lookahead=40 / rc=2pass / mbtree=0 / bitrate=7124 / ratetol=1.0 / qcomp=0.60 / qpmin=0 / qpmax=69 / qpstep=4 / cplxblur=20.0 / qblur=0.5 / vbv_maxrate=50000 / vbv_bufsize=62500 / nal_hrd=none / filler=0 / ip_ratio=1.25 / pb_ratio=1.30 / aq=1:1.00
Язык : English
По умолчанию : Да
Принудительно : Нет
Цветовой диапазон : Limited
Основные цвета : BT.709
Характеристики трансфера : BT.709
Коэффициенты матрицы : BT.709

Аудио #1
Идентификатор : 2
Формат : AC-3
Формат/Информация : Audio Coding 3
Идентификатор кодека : A_AC3
Продолжительность : 1 ч. 58 м.
Вид битрейта : Постоянный
Битрейт : 192 Кбит/сек
Каналы : 2 канала
Расположение каналов : Front: L R
Частота : 48,0 КГц
Частота кадров : 31,250 кадров/сек (1536 SPF)
Битовая глубина : 16 бит
Метод сжатия : С потерями
Размер потока : 163 Мбайт (2%)
Заголовок : MVO | НТВ+
Язык : Russian
По умолчанию : Да
Принудительно : Нет

Аудио #2
Идентификатор : 3
Формат : AC-3
Формат/Информация : Audio Coding 3
Идентификатор кодека : A_AC3
Продолжительность : 1 ч. 58 м.
Вид битрейта : Постоянный
Битрейт : 448 Кбит/сек
Каналы : 6 каналов
Расположение каналов : Front: L C R, Side: L R, LFE
Частота : 48,0 КГц
Частота кадров : 31,250 кадров/сек (1536 SPF)
Битовая глубина : 16 бит
Метод сжатия : С потерями
Размер потока : 380 Мбайт (6%)
Заголовок : Original
Язык : English
По умолчанию : Нет
Принудительно : Нет

Текст #1
Идентификатор : 4
Формат : UTF-8
Идентификатор кодека : S_TEXT/UTF8
Идентификатор кодека/Информация : UTF-8 Plain Text
Язык : Russian
По умолчанию : Нет
Принудительно : Нет

Текст #2
Идентификатор : 5
Формат : UTF-8
Идентификатор кодека : S_TEXT/UTF8
Идентификатор кодека/Информация : UTF-8 Plain Text
Заголовок : SDH
Язык : English
По умолчанию : Нет
Принудительно : Нет

Меню
00:00:00.000 : en:1. Main Titles
00:02:38.865 : en:2. A New Sandman
00:05:14.730 : en:3. Carousel
00:10:31.755 : en:4. "Run, Runner!"
00:14:10.390 : en:5. Cruising The Circuit
00:19:09.105 : en:6. Sandman Headquarters
00:21:48.181 : en:7. Logan's Mission
00:28:31.125 : en:8. Jessica Summoned
00:34:51.797 : en:9. Cathedral Cubs
00:43:43.036 : en:10. "The New You"
00:49:49.987 : en:11. The Love Shop
00:52:47.873 : en:12. The Gate Keepers
00:57:46.003 : en:13. Sandman Attack
01:00:27.748 : en:14. The Breeding Plant
01:04:53.179 : en:15. The Ice Cave
01:06:35.574 : en:16. Introducing Box
01:10:19.923 : en:17. Their First Sunrise
01:12:29.720 : en:18. "I Hate Outside!"
01:15:17.930 : en:19. A New Day
01:17:40.780 : en:20. Ancient Washington
01:21:09.698 : en:21. The Elder Statesman
01:32:27.875 : en:22. Sandman vs. Sandman
01:36:25.863 : en:23. Death Of A Friend
01:37:48.737 : en:24. "We're Going Back"
01:41:05.893 : en:25. The Return Journey
01:42:10.122 : en:26. Beloved Husband
01:44:02.903 : en:27. A Way Inside
01:47:28.692 : en:28. "Carousel Is A Lie!"
01:49:09.000 : en:29. The Interrogation
01:53:31.930 : en:30. Domed City Destroyed
01:54:01.626 : en:31. A New Beginning
01:56:25.936 : en:32. End Credits
скриншот  скриншот  скриншот  скриншот  скриншот  скриншот  скриншот  скриншот  
piratbit.org



Скачать Бегство Логана через торрент https://b.radikal.ru/b08/1811/02/e7ded39e5b19.png Скачать фильм Бегство Логана через торрент бесплантно в хорошем качестве Описание: Поощряя свободу и вседозволенность, общество 2274 года определяет лишь возрастную границу: люди должны жить только до 30 лет. ... 10 10 1
Info! Золотая раздача, скачанное не засчитывается.
Торрент: Зарегистрирован [2019-07-10 08:29] · скачан: 4 раз
Статус: √ проверено
Размер: 6.43 GB
Как cкачать? Как скачать Бегство Логана через торрент | qTorrent



Последний раз редактировалось: Cthulhu (2019-07-10 20:55), всего редактировалось 1 раз

28-11-2019 20:33  

Отключить всю рекламу на сайте

10-07-2019 10:49 Бегство Логана Скачать торрент  

Топик был перенесен из форума Фильмы [HD 720p, 1080p] (Хороший звук DUB, MVO) в форум Классика зарубежного кино


bober100piratbit.org



    Дорогой пользователь! Огромная просьба, поблагодарите релизера, оцените раздачу и оставьте свои комментарий, если Вы скачали Бегство Логана через торрент бесплатно! Внесите свою лепту в развитие PiratBit!
    Комментировать посты могут только пользователи прошедшие не сложную регистрацию
    Показать сообщения:    

    Бегство Логана через торрент
    Скачать бесплатно Бегство Логана
    Бегство Логана скачать торрент
    Бегство Логана смотреть онлайн
    Cкачать фильм Бегство Логана бесплатно
    Бегство Логана скачать торрент в хорошем качестве
    Бегство Логана смотреть онлайн бесплатно в хорошем качестве


    Вы не можете начинать темы
    Вы не можете отвечать на сообщения
    Вы не можете редактировать свои сообщения
    Вы не можете удалять свои сообщения
    Вы не можете голосовать в опросах
    Вы не можете прикреплять файлы к сообщениям
    Вы можете скачивать файлы