Мега распродажа FORZA HORIZON 4 ULTIMATE+ВСЕ DLC+ОНЛАЙН всего за 499р. 349 руб. (супер цена). Внимание количество ограничено!!!

iTunes

1+1

iTunes

мы

iTunes

1

1 сезон

Чернобыль

1 сезон

Ральф против интернета

Лицензия

ПШазам

8 сезон

Игра престолов

Лицензия

30
pack

ВАЖНО

!!Акция!!

Alien_RageХит недели

RePack

Resident Evil 21

ИГРА 18+

pack

RePack

Metro:Exodus

!!Акция!!

Alien_Rage

RePack

fifa19

RePack

Assassins Creed: Odyssey

RePack

NEED FOR SPEED™ PAYBACK

3 сезон

9 сезон

Бесстыжие 9 сезон

Все сериалы

все сериалы на PB.wtf

RePack

FAR CRY 5
Ребята, катастрофически не хватает 2730р. для оплаты серверов за ИЮНЬ (всвязи с блокировками трафик упал в 3 раза), 1-2р., выручайте.
  

Гость на свадьбе / The Wedding Guest (Майкл Уинтерботтом) [2018, Триллер, WEB-DLRip] MVO [iTunes] piratbit.org

Гость на свадьбе через торрент piratbit.org

Раздают: 1 [ 3 KB/s ]
Размер: 1.46 GB | Добавлен: 12 д. назад | Торрент скачан:65 раз
Скачать  

10-07-2019 12:33 Гость на свадьбе Скачать торрент  

Гость на свадьбе / The Wedding Guest
Год выпуска: 2018
Страна: Великобритания скриншот  
Жанр: Триллер
Продолжительность: 01:36:28
Перевод: Профессиональный многоголосый | iTunes
Субтитры: отсутствуют

Режиссер: Майкл Уинтерботтом

rating

В ролях: Дев Патель, Радхика Апте, Джим Сарбх, Ниш Натвани, Хэриш Ханна

Описание: Точно спланированная операция, призванная спасти девушку от нежелательной свадьбы, оборачивается гонкой на перегонки со временем, где каждый неверный шаг может стоит жизни...

Качество: WEB-DLRip
Формат: AVI

Видео: 704x288 (2.40:1), 23.976 fps, XviD build 73 ~1 768 kbps avg
Аудио: 48.0 kHz, AC3 Dolby Digital, 3/2 (L,C,R,l,r) + LFE ch, ~384 kbps
скриншот  скриншот  скриншот  

General
Формат : AVI
Формат/Информация : Audio Video Interleave
Размер файла : 1,46 Гбайт
Продолжительность : 1 ч. 36 м.
Общий поток : 2161 Кбит/сек
Название фильма : Гость на свадьбе_2018_WEB-DLRip
Программа кодирования : VirtualDubMod 1.5.10.3 | (build 2550/release)
Авторское право : порошков

Видео
Идентификатор : 0
Формат : MPEG-4 Visual
Профиль формата : Advanced Simple@L5
Настройки формата : BVOP1 / Custom Matrix
Параметр BVOP формата : 1
Параметр QPel формата : Нет
Параметр GMC формата : Без точки перехода
Параметр матрицы формата : Выборочная
Идентификатор кодека : XVID
Идентификатор кодека/Подсказка : XviD
Продолжительность : 1 ч. 36 м.
Битрейт : 1768 Кбит/сек
Ширина : 704 пикселя
Высота : 288 пикселей
Соотношение сторон : 2,40:1
Частота кадров : 23,976 (24000/1001) кадра/сек
Цветовое пространство : YUV
Субдискретизация насыщенности : 4:2:0
Битовая глубина : 8 бит
Тип развёртки : Прогрессивная
Метод сжатия : С потерями
Бит/(Пиксели*Кадры) : 0.364
Размер потока : 1,19 Гбайт (82%)
Библиотека кодирования : XviD 73

Аудио
Идентификатор : 1
Формат : AC-3
Формат/Информация : Audio Coding 3
Коммерческое название : Dolby Digital
Идентификатор кодека : 2000
Продолжительность : 1 ч. 36 м.
Вид битрейта : Постоянный
Битрейт : 384 Кбит/сек
Каналы : 6 каналов
ChannelLayout : L R C LFE Ls Rs
Частота : 48,0 КГц
Частота кадров : 31,250 кадров/сек (1536 SPF)
Битовая глубина : 16 бит
Метод сжатия : С потерями
Размер потока : 265 Мбайт (18%)
Выравнивание : Разделение по промежуткам
Продолжительность промежутка : 42 мс. (1,00 видеокадр)
Время предзагрузки промежутка : 500 мс.

piratbit.org



Скачать Гость на свадьбе через торрент https://i110.fastpic.ru/big/2019/0710/59/4497172521c724f45fe4a004237b7b59.jpg Скачать фильм Гость на свадьбе через торрент бесплантно в хорошем качестве Описание: Точно спланированная операция, призванная спасти девушку от нежелательной свадьбы, оборачивается гонкой на перегонки со временем, ... 8.2 10 5
Торрент: Зарегистрирован [2019-07-10 12:33] · скачан: 65 раз
Статус: √ проверено
Размер: 1.46 GB
Как cкачать? Как скачать Гость на свадьбе через торрент | qTorrent

% Раздел Тема Автор DL S | L
Фильмы 2018 [DVDrip, WEB-DLRip, HDrip] (DUB, MVO) [ 1.78 GB ] Гость на свадьбе / The Wedding Guest [2018 WEB-DLRip-AVC] MVO - ExKinoRay Enigma2010 Скачать
13 | 1
Фильмы (WEB-DL 720p, 1080p) [ 6.36 GB ] Гость на свадьбе / The Wedding Guest [2018 WEB-DL 1080p] MVO bober100 Скачать
3 | 0


>> Регистрируемся здесь <<






Отзывы и комментарии о схеме читаем и пишем здесь: ---> Отзывы и комментарии о схеме

Новые благодарочки в телеграм довольных пользователей:
скриншот   скриншот   скриншот   скриншот   скриншот
    Дорогой пользователь! Огромная просьба, поблагодарите релизера, оцените раздачу и оставьте свои комментарий, если Вы скачали Гость на свадьбе через торрент бесплатно! Внесите свою лепту в развитие PiratBit!
    Комментировать посты могут только пользователи прошедшие не сложную регистрацию
    Показать сообщения:    

    Гость на свадьбе через торрент
    Скачать бесплатно Гость на свадьбе
    Гость на свадьбе скачать торрент
    Гость на свадьбе смотреть онлайн
    Cкачать фильм Гость на свадьбе бесплатно
    Гость на свадьбе скачать торрент в хорошем качестве
    Гость на свадьбе смотреть онлайн бесплатно в хорошем качестве


    Вы не можете начинать темы
    Вы не можете отвечать на сообщения
    Вы не можете редактировать свои сообщения
    Вы не можете удалять свои сообщения
    Вы не можете голосовать в опросах
    Вы не можете прикреплять файлы к сообщениям
    Вы можете скачивать файлы