Мега распродажа FORZA HORIZON 4 ULTIMATE+ВСЕ DLC+ОНЛАЙН всего за 499р. 349 руб. (супер цена). Внимание количество ограничено!!!

iTunes

1+1

iTunes

мы

iTunes

1

1 сезон

Чернобыль

1 сезон

Ральф против интернета

Лицензия

ПШазам

8 сезон

Игра престолов

Лицензия

30
pack

ВАЖНО

!!Акция!!

Alien_RageХит недели

RePack

Resident Evil 21

ИГРА 18+

pack

RePack

Metro:Exodus

!!Акция!!

Alien_Rage

RePack

fifa19

RePack

Assassins Creed: Odyssey

RePack

NEED FOR SPEED™ PAYBACK

3 сезон

9 сезон

Бесстыжие 9 сезон

Все сериалы

все сериалы на PB.wtf

RePack

FAR CRY 5
Ребята, катастрофически не хватает 2730р. для оплаты серверов за ИЮНЬ (всвязи с блокировками трафик упал в 3 раза), 1-2р., выручайте.
  

Легион / Legion / Сезон: 3 / Серии: 1-4 из 8 (Тим Милантс, Майкл Аппендаль, Джон Камерон) [2019, фантастика, боевик, триллер, драма., WEB-DLRip] MVO [LostFilm] piratbit.org

Легион через торрент piratbit.org

Раздают: 1 [ 69 KB/s ]
Размер: 2.58 GB | Добавлен: 3 д. назад | Торрент скачан:5 раз
Скачать  

10-07-2019 16:56 Легион Скачать торрент  

Легион / Legion Год выпуска: 2019
Страна: США
Жанр: фантастика, боевик, триллер, драма
Продолжительность: ~ 00:50:00
Перевод: Профессиональный (многоголосый закадровый) | LostFilm
Субтитры: Русские, английские

Режиссёр: Тим Милантс, Майкл Аппендаль, Джон Камерон

В ролях: Дэн Стивенс, Джин Смарт, Маккензи Грэй, Скотт Лоуренс, Кэтрин Аселтон, Татьяна Форрест, Джереми Харрис, Билл Ирвин, Рэйчел Келлер, Эмбер Мидфандер, Обри Плаза, Хамиш Линклэйтер, Дженнифер Китчен

Описание: Дэвиду Хэллеру поставлен диагноз — шизофрения. Постепенно выясняется, что картины и голоса, которые он видит и слышит, вполне реальны, а не бред его воспаленного разума.



Качество: WEB-DLRip
Формат: AVI

Видео: XviD, 720x400, 23,976 fps, ~ 1599 kbps
Аудио 1: 48 kHz, AC3 2 ch, ~ 192 kbps|LostFilm|
Аудио 2: 48 kHz, AC3 2 ch, ~ 192 kbps

Реклама: Отсутствует
Обрезка заставки и синхронизация: kogesan
Format : AVI
Format/Info : Audio Video Interleave
File size : 703 MiB
Duration : 49mn 10s
Overall bit rate : 1 998 Kbps
Movie name : Легион 3х01: Глава 20
Director : Бёдвар (WEB-DLRip 400p)
Writing application : VirtualDubModRus 1.5.10.2 (build 2542/release)
Comment : 02.06.2019

Video
ID : 0
Format : MPEG-4 Visual
Format profile : Advanced Simple@L5
Format settings, BVOP : 1
Format settings, QPel : No
Format settings, GMC : No warppoints
Format settings, Matrix : Default (MPEG)
Codec ID : XVID
Codec ID/Hint : XviD
Duration : 49mn 10s
Bit rate : 1 600 Kbps
Width : 720 pixels
Height : 400 pixels
Display aspect ratio : 16:9
Frame rate : 23.976 (24000/1001) fps
Color space : YUV
Chroma subsampling : 4:2:0
Bit depth : 8 bits
Scan type : Progressive
Compression mode : Lossy
Bits/(Pixel*Frame) : 0.232
Stream size : 563 MiB (80%)
Writing library : XviD 67

Audio #1
ID : 1
Format : AC-3
Format/Info : Audio Coding 3
Mode extension : CM (complete main)
Format settings, Endianness : Big
Codec ID : 2000
Duration : 49mn 10s
Bit rate mode : Constant
Bit rate : 192 Kbps
Channel(s) : 2 channels
Channel positions : Front: L R
Sampling rate : 48.0 KHz
Frame rate : 31.250 fps (1536 spf)
Compression mode : Lossy
Stream size : 67.5 MiB (10%)
Alignment : Split accross interleaves
Interleave, duration : 42 ms (1.00 video frame)
Interleave, preload duratio : 500 ms

Audio #2
ID : 2
Format : AC-3
Format/Info : Audio Coding 3
Mode extension : CM (complete main)
Format settings, Endianness : Big
Codec ID : 2000
Duration : 49mn 10s
Bit rate mode : Constant
Bit rate : 192 Kbps
Channel(s) : 2 channels
Channel positions : Front: L R
Sampling rate : 48.0 KHz
Frame rate : 31.250 fps (1536 spf)
Compression mode : Lossy
Stream size : 67.5 MiB (10%)
Alignment : Split accross interleaves
Interleave, duration : 42 ms (1.00 video frame)
Interleave, preload duratio : 500 ms
скриншот  скриншот  скриншот  скриншот  
[font-serif1]Внимание! Раздача ведётся путём добавления новых серий; при каждом добавлении создаётся новый торрент. Чтобы начать докачку новой серии,пользователям необходимо сделать следующее:
(1) остановить скачивание,
(2) удалить старый торрент у себя из клиента (старые серии удалять не надо),
(3) скачать новый торрент и запустить его у себя в клиенте вместо старого, при этом указать клиенту путь в старую папку куда и должнопроисходить скачивание новых серий.

Ваш клиент при этом должен произвести хеширование (проверку) старой папки (если не производит сам - помогите ему сделать это), и будет докачивать только те серии
которых у вас ещё нет. Старые серии при этом не удаляются, а продолжают раздаваться!

Eсли вы уже удалили старые серии, то предотвратить повторную закачку старых серий можно, отжав галочку в соответствующих местах при запуске нового торрента.

По возможности, желательно не удалять старые серии как можно дольше чтобы релизёр не столько продолжал раздавать старые серии, а смог сконцентрироваться на новых.
[/font-serif1]
piratbit.org



Скачать Легион через торрент https://b.radikal.ru/b09/1907/3b/5500ddc4111f.jpg Скачать фильм Легион через торрент бесплантно в хорошем качестве Описание: Дэвиду Хэллеру поставлен диагноз — шизофрения. Постепенно выясняется, что картины и голоса, которые он видит и слышит, вполне ... 10 10 3
Торрент: Зарегистрирован [2019-07-19 05:49] · скачан: 5 раз
Статус: √ проверено
Размер: 2.58 GB
Как cкачать? Как скачать Легион через торрент | qTorrent

% Раздел Тема Автор DL S | L
Зарубежные сериалы [ 12.61 GB ] Легион / Legion / Сезон: 3 / Серии: 1-4 из 8 [2019 WEB-DL 1080p] MVO [LostFilm] bober100 Скачать
1 | 0
Зарубежные сериалы [ 5.02 GB ] Легион / Legion / Сезон: 3 / Серии: 1-4 из 8 [2019 WEB-DL 720p] [MVO] killermax2013 Скачать
3 | 2


>> Регистрируемся здесь <<






Отзывы и комментарии о схеме читаем и пишем здесь: ---> Отзывы и комментарии о схеме

Новые благодарочки в телеграм довольных пользователей:
скриншот   скриншот   скриншот   скриншот   скриншот
    Дорогой пользователь! Огромная просьба, поблагодарите релизера, оцените раздачу и оставьте свои комментарий, если Вы скачали Легион через торрент бесплатно! Внесите свою лепту в развитие PiratBit!
    Комментировать посты могут только пользователи прошедшие не сложную регистрацию
    Показать сообщения:    

    Легион через торрент
    Скачать бесплатно Легион
    Легион скачать торрент
    Легион смотреть онлайн
    Cкачать фильм Легион бесплатно
    Легион скачать торрент в хорошем качестве
    Легион смотреть онлайн бесплатно в хорошем качестве


    Вы не можете начинать темы
    Вы не можете отвечать на сообщения
    Вы не можете редактировать свои сообщения
    Вы не можете удалять свои сообщения
    Вы не можете голосовать в опросах
    Вы не можете прикреплять файлы к сообщениям
    Вы можете скачивать файлы