Мега распродажа FORZA HORIZON 4 ULTIMATE+ВСЕ DLC+ОНЛАЙН всего за 499р. 349 руб. (супер цена). Внимание количество ограничено!!!

iTunes

1+1

iTunes

мы

iTunes

1

1 сезон

Чернобыль

1 сезон

Ральф против интернета

Лицензия

ПШазам

8 сезон

Игра престолов

Лицензия

30
pack

ВАЖНО

!!Акция!!

Alien_RageХит недели

RePack

Resident Evil 21

ИГРА 18+

pack

RePack

Metro:Exodus

!!Акция!!

Alien_Rage

RePack

fifa19

RePack

Assassins Creed: Odyssey

RePack

NEED FOR SPEED™ PAYBACK

3 сезон

9 сезон

Бесстыжие 9 сезон

Все сериалы

все сериалы на PB.wtf

RePack

FAR CRY 5
Ребята, катастрофически не хватает 2730р. для оплаты серверов за ИЮНЬ (всвязи с блокировками трафик упал в 3 раза), 1-2р., выручайте.
  

Гость на свадьбе / The Wedding Guest (Майкл Уинтерботтом) [2018, Триллер, WEB-DLRip-AVC] MVO [iTunes] - ExKinoRay piratbit.org

Гость на свадьбе через торрент piratbit.org

Раздают: 35 [ 433 KB/s ] Качают: 2 [ 1 MB/s ]
Размер: 1.78 GB | Добавлен: 11 д. назад | Торрент скачан:41 раз
Скачать  

10-07-2019 22:50 Гость на свадьбе Скачать торрент  

Информация о фильме
Название: Гость на свадьбе
Оригинальное название: The Wedding Guest
Год выхода: 2018
Жанр: Триллер
Режиссер: Майкл Уинтерботтом
В ролях: Дев Патель, Радхика Апте, Джим Сарбх, Ниш Натвани, Хэриш Ханна

Описание: Точно спланированная операция, призванная спасти девушку от нежелательной свадьбы, оборачивается гонкой на перегонки со временем, где каждый неверный шаг может стоит жизни

rating

Страна: Великобритания
Студия: India Take One Productions, Ingenious Media, Isobel Griffiths Limited, Lipsync Post, Revolution Films, Riverstone Pictures, Stage 6 Films
Продолжительность: 01:36:28
Перевод: Профессиональный (многоголосый, закадровый) | iTunes

Формат: MKV
Качество: WEB-DLRip-AVC
Видео: MPEG-4 AVC, 1024x424 (2.40:1), 23.976 fps, 1870 Kbps, 0.180 bit/pixel
Аудио #1: 48 kHz, AC3, 5.1, 384 Kbps (iTunes) |
Аудио #2: 48 kHz, AC3, 5.1, 384 Kbps (Английский - Original) |
Субтитры: Русские, английские, украинские
General
Unique ID : 204081171946676528271857141501586217725 (0x99889AA0A58FA87490D77CE215269AFD)
Complete name : D:\The.Wedding.Guest.2018.WEb-DL.AVC.ExKinoRay.mkv
Format : Matroska
Format version : Version 2
File size : 1.78 GiB
Duration : 1 h 36 min
Overall bit rate : 2 638 kb/s
Movie name : The Wedding Guest 2018 from ExKinoRay
Encoded date : UTC 2019-07-10 21:07:55
Writing application : mkvmerge v5.6.0 ('Kenya Kane') built on May 27 2012 16:44:04
Writing library : libebml v1.2.3 + libmatroska v1.3.0
Attachments : The.Wedding .Guest.jpg

Video
ID : 1
Format : AVC
Format/Info : Advanced Video Codec
Format profile : High@L4.1
Format settings, CABAC : Yes
Format settings, ReFrames : 11 frames
Codec ID : V_MPEG4/ISO/AVC
Duration : 1 h 36 min
Bit rate : 1 870 kb/s
Width : 1 024 pixels
Height : 424 pixels
Display aspect ratio : 2.40:1
Frame rate mode : Constant
Frame rate : 23.976 (23976/1000) FPS
Color space : YUV
Chroma subsampling : 4:2:0
Bit depth : 8 bits
Scan type : Progressive
Bits/(Pixel*Frame) : 0.180
Stream size : 1.23 GiB (69%)
Title : Enigma
Writing library : x264 core 152 r2851 ba24899
Encoding settings : cabac=1 / ref=11 / deblock=1:-2:-2 / analyse=0x3:0x113 / me=umh / subme=10 / psy=1 / psy_rd=1.05:0.10 / mixed_ref=1 / me_range=32 / chroma_me=1 / trellis=2 / 8x8dct=1 / cqm=0 / deadzone=21,11 / fast_pskip=0 / chroma_qp_offset=-3 / threads=12 / lookahead_threads=2 / sliced_threads=0 / nr=0 / decimate=0 / interlaced=0 / bluray_compat=0 / constrained_intra=0 / bframes=9 / b_pyramid=2 / b_adapt=2 / b_bias=0 / direct=3 / weightb=1 / open_gop=0 / weightp=2 / keyint=240 / keyint_min=23 / scenecut=40 / intra_refresh=0 / rc=2pass / mbtree=0 / bitrate=1870 / ratetol=1.0 / qcomp=0.60 / qpmin=0 / qpmax=51 / qpstep=4 / cplxblur=20.0 / qblur=0.5 / ip_ratio=1.40 / pb_ratio=1.30 / aq=1:1.00
Language : English
Default : Yes
Forced : No
Color range : Limited
Color primaries : BT.709
Transfer characteristics : BT.709
Matrix coefficients : BT.709

Audio #1
ID : 2
Format : AC-3
Format/Info : Audio Coding 3
Mode extension : CM (complete main)
Format settings, Endianness : Big
Codec ID : A_AC3
Duration : 1 h 36 min
Bit rate mode : Constant
Bit rate : 384 kb/s
Channel(s) : 6 channels
Channel positions : Front: L C R, Side: L R, LFE
Sampling rate : 48.0 kHz
Frame rate : 31.250 FPS (1536 spf)
Compression mode : Lossy
Stream size : 265 MiB (15%)
Title : iTunes
Language : Russian
Default : Yes
Forced : No

Audio #2
ID : 3
Format : AC-3
Format/Info : Audio Coding 3
Mode extension : CM (complete main)
Format settings, Endianness : Big
Codec ID : A_AC3
Duration : 1 h 36 min
Bit rate mode : Constant
Bit rate : 384 kb/s
Channel(s) : 6 channels
Channel positions : Front: L C R, Side: L R, LFE
Sampling rate : 48.0 kHz
Frame rate : 31.250 FPS (1536 spf)
Compression mode : Lossy
Stream size : 265 MiB (15%)
Language : English
Default : No
Forced : No

Text #1
ID : 4
Format : UTF-8
Codec ID : S_TEXT/UTF8
Codec ID/Info : UTF-8 Plain Text
Title : Full
Language : Russian
Default : No
Forced : No

Text #2
ID : 5
Format : UTF-8
Codec ID : S_TEXT/UTF8
Codec ID/Info : UTF-8 Plain Text
Title : Full
Language : Ukrainian
Default : No
Forced : No

Text #3
ID : 6
Format : UTF-8
Codec ID : S_TEXT/UTF8
Codec ID/Info : UTF-8 Plain Text
Title : Full
Language : English
Default : No
Forced : No

Menu
00:00:00.000 : en:1
00:06:04.114 : en:2
00:12:07.227 : en:3
00:21:57.233 : en:4
00:26:07.358 : en:5
00:29:00.739 : en:6
00:35:46.811 : en:7
00:41:23.354 : en:8
00:48:28.821 : en:9
00:53:40.424 : en:10
01:03:15.665 : en:11
01:05:34.637 : en:12
01:12:03.316 : en:13
01:18:25.740 : en:14
01:23:42.305 : en:15
01:28:22.418 : en:16
Релиз от:

Автор релиза: piratbit.org



Скачать Гость на свадьбе через торрент https://i110.fastpic.ru/big/2019/0710/59/4497172521c724f45fe4a004237b7b59.jpg Скачать фильм Гость на свадьбе через торрент бесплантно в хорошем качестве Описание: Точно спланированная операция, призванная спасти девушку от нежелательной свадьбы, оборачивается гонкой на перегонки со временем, ... 10 10 1
Info! Золотая раздача, скачанное не засчитывается.
Торрент: Зарегистрирован [2019-07-10 22:50] · скачан: 41 раз
Статус: √ проверено
Размер: 1.78 GB
Как cкачать? Как скачать Гость на свадьбе через торрент | qTorrent


>> Регистрируемся здесь <<






Отзывы и комментарии о схеме читаем и пишем здесь: ---> Отзывы и комментарии о схеме

Новые благодарочки в телеграм довольных пользователей:
скриншот   скриншот   скриншот   скриншот   скриншот
    Дорогой пользователь! Огромная просьба, поблагодарите релизера, оцените раздачу и оставьте свои комментарий, если Вы скачали Гость на свадьбе через торрент бесплатно! Внесите свою лепту в развитие PiratBit!
    Комментировать посты могут только пользователи прошедшие не сложную регистрацию
    Показать сообщения:    

    Гость на свадьбе через торрент
    Скачать бесплатно Гость на свадьбе
    Гость на свадьбе скачать торрент
    Гость на свадьбе смотреть онлайн
    Cкачать фильм Гость на свадьбе бесплатно
    Гость на свадьбе скачать торрент в хорошем качестве
    Гость на свадьбе смотреть онлайн бесплатно в хорошем качестве


    Вы не можете начинать темы
    Вы не можете отвечать на сообщения
    Вы не можете редактировать свои сообщения
    Вы не можете удалять свои сообщения
    Вы не можете голосовать в опросах
    Вы не можете прикреплять файлы к сообщениям
    Вы можете скачивать файлы