новый адрес
Мега распродажа FORZA HORIZON 4 ULTIMATE+ВСЕ DLC+ОНЛАЙН всего за 499р. 349 руб. (супер цена). Внимание количество ограничено!!!

iTunes

1+1

iTunes

мы

iTunes

1

iTunes

Чернобыль

iTunes

Ральф против интернета

Лицензия

ПШазам

Лицензия

Игра престолов

Лицензия

30
pack

ВАЖНО

!!Акция!!

Alien_RageХит недели

RePack

Resident Evil 21

ИГРА 18+

pack

RePack

Metro:Exodus

!!Акция!!

Alien_Rage

RePack

fifa19

RePack

Assassins Creed: Odyssey

RePack

NEED FOR SPEED™ PAYBACK

3 сезон

9 сезон

Бесстыжие 9 сезон

Все сериалы

все сериалы на PB.wtf

RePack

FAR CRY 5
Ребята, катастрофически не хватает 1900р. для оплаты серверов за Октябрь (всвязи с блокировками трафик упал в 3 раза), 1-2р., выручайте.
  

Армейские приключения / In the Army Now (Дэниел Питри мл.) [1994 г., комедия, военный, WEB-DL 1080p] MVO + DVO + 2xAVO - KORSAR piratbit.org

Армейские приключения через торрент piratbit.org

Раздают: 1 [ 0 KB/s ]
Размер: 9.76 GB | Добавлен: 4 мес. 6 д. назад | Торрент скачан:28 раз
Скачать  

11-07-2019 12:57 Армейские приключения Скачать торрент  

Армейские приключения / In the Army Now
Год выпуска: 1994
Страна: США
Жанр: Комедия, военный
Продолжительность: 01:32:15
Перевод: Профессиональный многоголосый, профессиональный двухголосый, авторский одноголосый
Субтитры: Английские, финские, эстонские
Режиссер: Дэниел Питри мл.
В ролях: Поли Шор, Энди Дик, Лори Петти, Дэвид Алан Грир, Эсай Моралес, Линн Уитфилд, Арт ЛаФлёр, Фабиана Уденио, Гленн Моршауэр, Биу Биллингсли
Описание: Закадычные друзья Боунз и Джек вовсе не думали становиться героями. Они записались в резервисты американской армии, чтобы заработать денег и открыть собственный магазин. Но тихой службы в тылу не получилось. Свободный мир опять в опасности, и вот уже бравые вояки отправляются сражаться в Африку.Это совсем не входило в планы Боунза и Джека, которых по уровню героизма в крови обогнал бы и кролик. Но тут, по иронии судьбы, дело обернулось так, что именно этому эксцентричному дуэту предстоит внести основной вклад в победу.

rating

Качество: WEB-DL 1080p
Формат: MKV
Видео: MPEG-4 AVC, 13,7 Мбит/сек, 1920x1080, 23.976 кадра/сек
Аудио 1: Russian: AC3, 2 ch, 192 Кбит/сек | MVO, CTC
Аудио 2: Russian: AC3, 2 ch, 192 Кбит/сек | DVO, Видеосервис
Аудио 3: Russian: AC3, 2 ch, 192 Кбит/сек | AVO, Василий Горчаков
Аудио 4: Russian: AC3, 2 ch, 192 Кбит/сек | AVO, Вартан Дохалов
Аудио 5: Ukrainian: AC3, 2 ch, 192 Кбит/сек | DVO, «Новий»
Аудио 6: English: EAC3, 2 ch, 224 Кбит/сек | Оригинал

Релиз от:


скриншот  скриншот  скриншот  скриншот  скриншот  
Общее
Уникальный идентификатор : 233329807490963321541987621123947195562 (0xAF89AFB2701710D18E67D445517F6CAA)
Полное имя : Армейские.приключения.1994.WEB-DL.1080p.mkv
Формат : Matroska
Версия формата : Version 2
Размер файла : 9,76 Гбайт
Продолжительность : 1 ч. 32 м.
Режим общего битрейта : Переменный
Общий поток : 15,2 Мбит/сек
Дата кодирования : UTC 2018-04-03 04:31:54
Программа кодирования : mkvmerge v5.8.0 ('No Sleep / Pillow') built on Sep 2 2012 15:37:04
Библиотека кодирования : libebml v1.2.3 + libmatroska v1.3.0

Видео
Идентификатор : 1
Формат : AVC
Формат/Информация : Advanced Video Codec
Профиль формата : High@L4
Настройки формата : CABAC / 4 Ref Frames
Параметр CABAC формата : Да
Параметр RefFrames формата : 4 кадра
Идентификатор кодека : V_MPEG4/ISO/AVC
Продолжительность : 1 ч. 32 м.
Вид битрейта : Переменный
Битрейт : 13,7 Мбит/сек
Максимальный битрейт : 15,0 Мбит/сек
Ширина : 1920 пикселей
Высота : 1080 пикселей
Соотношение сторон : 16:9
Режим частоты кадров : Постоянный
Частота кадров : 23,976 (24000/1001) кадра/сек
Цветовое пространство : YUV
Субдискретизация насыщенности : 4:2:0
Битовая глубина : 8 бит
Тип развёртки : Прогрессивная
Бит/(Пиксели*Кадры) : 0.275
Размер потока : 8,81 Гбайт (90%)
Язык : English
Default : Да
Forced : Нет
Цветовой диапазон : Limited
Основные цвета : BT.709
Характеристики трансфера : BT.709
Коэффициенты матрицы : BT.709

Аудио #1
Идентификатор : 2
Формат : AC-3
Формат/Информация : Audio Coding 3
Идентификатор кодека : A_AC3
Продолжительность : 1 ч. 32 м.
Вид битрейта : Постоянный
Битрейт : 192 Кбит/сек
Каналы : 2 канала
Расположение каналов : Front: L R
Частота : 48,0 КГц
Частота кадров : 31,250 кадров/сек (1536 SPF)
Битовая глубина : 16 бит
Метод сжатия : С потерями
Размер потока : 127 Мбайт (1%)
Заголовок : MVO | «CTC», DVD
Язык : Russian
По умолчанию : Да
Принудительно : Нет

Аудио #2
Идентификатор : 3
Формат : AC-3
Формат/Информация : Audio Coding 3
Идентификатор кодека : A_AC3
Продолжительность : 1 ч. 32 м.
Вид битрейта : Постоянный
Битрейт : 192 Кбит/сек
Каналы : 2 канала
Расположение каналов : Front: L R
Частота : 48,0 КГц
Частота кадров : 31,250 кадров/сек (1536 SPF)
Битовая глубина : 16 бит
Метод сжатия : С потерями
Размер потока : 127 Мбайт (1%)
Заголовок : DVO | Видеосервис, VHS
Язык : Russian
По умолчанию : Нет
Принудительно : Нет

Аудио #3
Идентификатор : 4
Формат : AC-3
Формат/Информация : Audio Coding 3
Идентификатор кодека : A_AC3
Продолжительность : 1 ч. 32 м.
Вид битрейта : Постоянный
Битрейт : 192 Кбит/сек
Каналы : 2 канала
Расположение каналов : Front: L R
Частота : 48,0 КГц
Частота кадров : 31,250 кадров/сек (1536 SPF)
Битовая глубина : 16 бит
Метод сжатия : С потерями
Размер потока : 127 Мбайт (1%)
Заголовок : AVO | В. Горчаков
Язык : Russian
По умолчанию : Нет
Принудительно : Нет

Аудио #4
Идентификатор : 5
Формат : AC-3
Формат/Информация : Audio Coding 3
Идентификатор кодека : A_AC3
Продолжительность : 1 ч. 32 м.
Вид битрейта : Постоянный
Битрейт : 192 Кбит/сек
Каналы : 2 канала
Расположение каналов : Front: L R
Частота : 48,0 КГц
Частота кадров : 31,250 кадров/сек (1536 SPF)
Битовая глубина : 16 бит
Метод сжатия : С потерями
Размер потока : 127 Мбайт (1%)
Заголовок : AVO | В. Дохалов
Язык : Russian
По умолчанию : Нет
Принудительно : Нет

Аудио #5
Идентификатор : 6
Формат : AC-3
Формат/Информация : Audio Coding 3
Идентификатор кодека : A_AC3
Продолжительность : 1 ч. 32 м.
Вид битрейта : Постоянный
Битрейт : 192 Кбит/сек
Каналы : 2 канала
Расположение каналов : Front: L R
Частота : 48,0 КГц
Частота кадров : 31,250 кадров/сек (1536 SPF)
Битовая глубина : 16 бит
Метод сжатия : С потерями
Размер потока : 127 Мбайт (1%)
Заголовок : DVO | «Новий»
Язык : Ukrainian
По умолчанию : Нет
Принудительно : Нет

Аудио #6
Идентификатор : 7
Формат : E-AC-3
Формат/Информация : Enhanced Audio Coding 3
Идентификатор кодека : A_EAC3
Продолжительность : 1 ч. 32 м.
Вид битрейта : Постоянный
Битрейт : 224 Кбит/сек
Каналы : 2 канала
Расположение каналов : Front: L R
Частота : 48,0 КГц
Частота кадров : 187,500 кадров/сек (256 SPF)
Метод сжатия : С потерями
Размер потока : 148 Мбайт (1%)
Заголовок : Original
Язык : English
По умолчанию : Нет
Принудительно : Нет

Текст #1
Идентификатор : 8
Формат : UTF-8
Идентификатор кодека : S_TEXT/UTF8
Идентификатор кодека/Информация : UTF-8 Plain Text
Язык : English
По умолчанию : Нет
Принудительно : Нет

Текст #2
Идентификатор : 9
Формат : UTF-8
Идентификатор кодека : S_TEXT/UTF8
Идентификатор кодека/Информация : UTF-8 Plain Text
Язык : Finnish
По умолчанию : Нет
Принудительно : Нет

Текст #3
Идентификатор : 10
Формат : UTF-8
Идентификатор кодека : S_TEXT/UTF8
Идентификатор кодека/Информация : UTF-8 Plain Text
Язык : Estonian
По умолчанию : Нет
Принудительно : Нет

Меню
00:00:00.000 : en:Chapter 01
00:06:17.130 : en:Chapter 02
00:10:39.892 : en:Chapter 03
00:21:19.615 : en:Chapter 04
00:31:14.376 : en:Chapter 05
00:44:18.576 : en:Chapter 06
00:57:12.732 : en:Chapter 07
01:01:31.107 : en:Chapter 08
01:10:42.992 : en:Chapter 09
01:26:39.197 : en:Chapter 10
piratbit.org



Скачать Армейские приключения через торрент https://i3.imageban.ru/out/2019/07/11/fe1348c6d1ff55153c6a2f2982330597.png Скачать фильм Армейские приключения через торрент бесплантно в хорошем качестве Описание: Закадычные друзья Боунз и Джек вовсе не думали становиться героями. Они записались в резервисты американской армии, чтобы ... 10 10 3
Торрент: Зарегистрирован [2019-07-11 12:57] · скачан: 28 раз
Статус: √ проверено
Размер: 9.76 GB
Как cкачать? Как скачать Армейские приключения через торрент | qTorrent


>> Регистрируемся здесь <<






Отзывы и комментарии о схеме читаем и пишем здесь: ---> Отзывы и комментарии о схеме

Новые благодарочки в телеграм довольных пользователей:
скриншот   скриншот   скриншот   скриншот   скриншот
    Дорогой пользователь! Огромная просьба, поблагодарите релизера, оцените раздачу и оставьте свои комментарий, если Вы скачали Армейские приключения через торрент бесплатно! Внесите свою лепту в развитие PiratBit!
    Комментировать посты могут только пользователи прошедшие не сложную регистрацию
    Показать сообщения:    

    Армейские приключения через торрент
    Скачать бесплатно Армейские приключения
    Армейские приключения скачать торрент
    Армейские приключения смотреть онлайн
    Cкачать фильм Армейские приключения бесплатно
    Армейские приключения скачать торрент в хорошем качестве
    Армейские приключения смотреть онлайн бесплатно в хорошем качестве


    Вы не можете начинать темы
    Вы не можете отвечать на сообщения
    Вы не можете редактировать свои сообщения
    Вы не можете удалять свои сообщения
    Вы не можете голосовать в опросах
    Вы не можете прикреплять файлы к сообщениям
    Вы можете скачивать файлы