новый адрес пиратбит piratbit
Мега распродажа FORZA HORIZON 4 ULTIMATE+ВСЕ DLC+ОНЛАЙН всего за 499р. 349 руб. (супер цена). Внимание количество ограничено!!!

iTunes

1+1

iTunes

мы

iTunes

1

iTunes

Чернобыль

iTunes

Ральф против интернета

Лицензия

ПШазам

Лицензия

Игра престолов

Лицензия

30
pack

ВАЖНО

!!Акция!!

Alien_RageХит недели

RePack

Resident Evil 21

ИГРА 18+

pack

RePack

Metro:Exodus

!!Акция!!

Alien_Rage

RePack

fifa19

RePack

Assassins Creed: Odyssey

RePack

NEED FOR SPEED™ PAYBACK

3 сезон

9 сезон

Бесстыжие 9 сезон

Все сериалы

все сериалы на PB.wtf

RePack

FAR CRY 5
Ребята, катастрофически не хватает 1900р. для оплаты серверов за Октябрь (всвязи с блокировками трафик упал в 3 раза), 1-2р., выручайте.
  

Свет во тьме / Shining Through (Дэвид Зельцер) [1992 г, триллер, драма, мелодрама, военный, BDRip 720p] MVO + 2xDVO + AVO - KORSAR piratbit.org

Свет во тьме через торрент piratbit.org

Размер: 8.49 GB | Добавлен: 4 мес. 2 д. назад | Торрент скачан:9 раз
Скачать  

11-07-2019 16:26 Свет во тьме Скачать торрент  

Свет во тьме / Shining Through
Год выпуска: 1992
Страна: США , Великобритания
Жанр: Триллер, драма, мелодрама, военный
Продолжительность: 02:12:32
Перевод: Профессиональный многоголосый, профессиональный двухголосый, авторский одноголосый
Субтитры: Русские, английские
Режиссёр: Дэвид Зельцер
В ролях: Майкл Дуглас, Мелани Гриффит, Лиам Нисон, Джоэли Ричардсон, Джон Гилгуд, Френсис Гуинан, Патрик Винчевский, Энтони Уолтерс, Виктория Шалет, Шила Аллен, Стэнли Бирд, Сильвия Симс, Рональд Ничке, Ханси Йохман, Питер Флехтнер, Александр Гауф, Клаус Планкерс
Описание: Скромная секретарша Линда Восс обнаруживает, что ее босс, Эд Леленд, совсем не инженер, за которого он себя выдает, а полковник американской разведки. США объявляют войну фашистской Германии. Примерно в это же время оперативного американского агента убивают в Берлине и отважная Линда убеждает шефа, что именно она должна отправиться на место погибшего резидента. Теперь ей предстоит доказать, что обыкновенная секретарша может легко освоить опасную профессию разведчика.

rating

Качество: BDRip 720p
Формат: MKV
Видео: MPEG-4 AVC, 1280x542 (2.35:1), 7515 kbps, 23.976 fps
Аудио 1: Russian: 48 kHz, AC3, 2.0 ch, 192 kbps - MVO, 1 канал
Аудио 2: Russian: 48 kHz, AC3, 5.1 ch, 448 kbps - DVO, Двадцатый Век Фокс
Аудио 3: Russian: 48 kHz, AC3, 2.0 ch, 192 kbps - DVO, Премьер
Аудио 4: Russian: 48 kHz, AC3, 2.0 ch, 192 kbps - AVO, А. Гаврилов
Аудио 5: English: 48 kHz, AC3, 5.1 ch, 448 kbps - Оригинал

Релиз от:


  • x264 [info]: frame I:1184 Avg QP:16.36 size:132742
  • x264 [info]: frame P:35214 Avg QP:18.08 size: 76897
  • x264 [info]: frame B:154270 Avg QP:20.41 size: 31009
  • x264 [info]: consecutive B-frames: 0.9% 1.2% 4.2% 10.0% 17.8% 47.8% 8.4% 1.7% 2.0% 2.4% 1.2% 0.2% 1.3% 1.0%

    =======================================================================================

    Общее
    Уникальный идентификатор : 206719762027093922488385862634151209231 (0x9B84C72998A3A9258D25D118D08DE90F)
    Полное имя : Свет.во.тьме.1992.BDRip.720p.KORSAR.mkv
    Формат : Matroska
    Версия формата : Version 2
    Размер файла : 8,49 Гбайт
    Продолжительность : 2 ч. 12 м.
    Общий поток : 9170 Кбит/сек
    Название фильма : Свет.во.тьме.1992.BDRip.720p.KORSAR
    Дата кодирования : UTC 2018-07-29 03:05:02
    Программа кодирования : mkvmerge v5.8.0 ('No Sleep / Pillow') built on Sep 2 2012 15:37:04
    Библиотека кодирования : libebml v1.2.3 + libmatroska v1.3.0

    Видео
    Идентификатор : 1
    Формат : AVC
    Формат/Информация : Advanced Video Codec
    Профиль формата : High@L4.1
    Параметр CABAC формата : Да
    Параметр RefFrames формата : 12 кадров
    Идентификатор кодека : V_MPEG4/ISO/AVC
    Продолжительность : 2 ч. 12 м.
    Битрейт : 7515 Кбит/сек
    Ширина : 1280 пикселей
    Высота : 542 пикселя
    Соотношение сторон : 2,35:1
    Режим частоты кадров : Постоянный
    Частота кадров : 23,976 (24000/1001) кадра/сек
    Цветовое пространство : YUV
    Субдискретизация насыщенности : 4:2:0
    Битовая глубина : 8 бит
    Тип развёртки : Прогрессивная
    Бит/(Пиксели*Кадры) : 0.452
    Размер потока : 6,96 Гбайт (82%)
    Библиотека кодирования : x264 core 152 r2851kMod ba24899
    Настройки программы : cabac=1 / ref=12 / deblock=1:-3:-2 / analyse=0x3:0x113 / me=umh / subme=10 / psy=1 / fade_compensate=0.00 / psy_rd=1.03:0.10 / mixed_ref=1 / me_range=40 / chroma_me=1 / trellis=2 / 8x8dct=1 / cqm=0 / deadzone=21,11 / fast_pskip=1 / chroma_qp_offset=-3 / threads=12 / lookahead_threads=3 / sliced_threads=0 / nr=0 / decimate=1 / interlaced=0 / bluray_compat=0 / constrained_intra=0 / bframes=13 / b_pyramid=2 / b_adapt=2 / b_bias=0 / direct=1 / weightb=1 / open_gop=0 / weightp=2 / keyint=240 / keyint_min=23 / scenecut=40 / intra_refresh=0 / rc=crf / mbtree=0 / crf=18.2000 / qcomp=0.63 / qpmin=0 / qpmax=39 / qpstep=4 / ip_ratio=1.40 / pb_ratio=1.30 / aq=2:0.80
    Язык : English
    Default : Да
    Forced : Нет
    Цветовой диапазон : Limited
    Основные цвета : BT.709
    Характеристики трансфера : BT.709
    Коэффициенты матрицы : BT.709

    Аудио #1
    Идентификатор : 2
    Формат : AC-3
    Формат/Информация : Audio Coding 3
    Параметр Endianness формата : Big
    Идентификатор кодека : A_AC3
    Продолжительность : 2 ч. 12 м.
    Вид битрейта : Постоянный
    Битрейт : 192 Кбит/сек
    Каналы : 2 канала
    Расположение каналов : Front: L R
    Частота : 48,0 КГц
    Частота кадров : 31,250 кадров/сек (1536 SPF)
    Битовая глубина : 16 бит
    Метод сжатия : С потерями
    Размер потока : 182 Мбайт (2%)
    Заголовок : MVO, 1 канал
    Язык : Russian
    Default : Нет
    Forced : Нет

    Аудио #2
    Идентификатор : 3
    Формат : AC-3
    Формат/Информация : Audio Coding 3
    Параметр Endianness формата : Big
    Идентификатор кодека : A_AC3
    Продолжительность : 2 ч. 12 м.
    Вид битрейта : Постоянный
    Битрейт : 448 Кбит/сек
    Каналы : 6 каналов
    Расположение каналов : Front: L C R, Side: L R, LFE
    Частота : 48,0 КГц
    Частота кадров : 31,250 кадров/сек (1536 SPF)
    Битовая глубина : 16 бит
    Метод сжатия : С потерями
    Размер потока : 425 Мбайт (5%)
    Заголовок : DVO, Двадцатый Век Фокс
    Язык : Russian
    Default : Да
    Forced : Нет

    Аудио #3
    Идентификатор : 4
    Формат : AC-3
    Формат/Информация : Audio Coding 3
    Параметр Endianness формата : Big
    Идентификатор кодека : A_AC3
    Продолжительность : 2 ч. 12 м.
    Вид битрейта : Постоянный
    Битрейт : 192 Кбит/сек
    Каналы : 2 канала
    Расположение каналов : Front: L R
    Частота : 48,0 КГц
    Частота кадров : 31,250 кадров/сек (1536 SPF)
    Битовая глубина : 16 бит
    Метод сжатия : С потерями
    Размер потока : 182 Мбайт (2%)
    Заголовок : DVO, Премьер
    Язык : Russian
    Default : Нет
    Forced : Нет

    Аудио #4
    Идентификатор : 5
    Формат : AC-3
    Формат/Информация : Audio Coding 3
    Параметр Endianness формата : Big
    Идентификатор кодека : A_AC3
    Продолжительность : 2 ч. 12 м.
    Вид битрейта : Постоянный
    Битрейт : 192 Кбит/сек
    Каналы : 2 канала
    Расположение каналов : Front: L R
    Частота : 48,0 КГц
    Частота кадров : 31,250 кадров/сек (1536 SPF)
    Битовая глубина : 16 бит
    Метод сжатия : С потерями
    Размер потока : 182 Мбайт (2%)
    Заголовок : AVO, А. Гаврилов
    Язык : Russian
    Default : Нет
    Forced : Нет

    Аудио #5
    Идентификатор : 6
    Формат : AC-3
    Формат/Информация : Audio Coding 3
    Параметр Endianness формата : Big
    Идентификатор кодека : A_AC3
    Продолжительность : 2 ч. 12 м.
    Вид битрейта : Постоянный
    Битрейт : 448 Кбит/сек
    Каналы : 6 каналов
    Расположение каналов : Front: L C R, Side: L R, LFE
    Частота : 48,0 КГц
    Частота кадров : 31,250 кадров/сек (1536 SPF)
    Битовая глубина : 16 бит
    Метод сжатия : С потерями
    Размер потока : 425 Мбайт (5%)
    Заголовок : Оригинал
    Язык : English
    Default : Нет
    Forced : Нет

    Текст #1
    Идентификатор : 7
    Формат : UTF-8
    Идентификатор кодека : S_TEXT/UTF8
    Идентификатор кодека/Информация : UTF-8 Plain Text
    Язык : Russian
    Default : Нет
    Forced : Нет

    Текст #2
    Идентификатор : 8
    Формат : UTF-8
    Идентификатор кодека : S_TEXT/UTF8
    Идентификатор кодека/Информация : UTF-8 Plain Text
    Язык : English
    Default : Нет
    Forced : Нет

    Меню
    00:00:00.000 : en:Chapter 01
    00:02:06.224 : en:Chapter 02
    00:14:00.980 : en:Chapter 03
    00:24:45.290 : en:Chapter 04
    00:36:50.389 : en:Chapter 05
    00:48:24.541 : en:Chapter 06
    00:58:42.367 : en:Chapter 07
    01:07:48.788 : en:Chapter 08
    01:21:21.141 : en:Chapter 09
    01:36:02.480 : en:Chapter 10
    01:55:37.820 : en:Chapter 11
  • piratbit.org



    Скачать Свет во тьме через торрент https://i6.imageban.ru/out/2019/07/11/438672dca82dfda7ac269b0a37e02f1a.png Скачать фильм Свет во тьме через торрент бесплантно в хорошем качестве Описание: Скромная секретарша Линда Восс обнаруживает, что ее босс, Эд Леленд, совсем не инженер, за которого он себя выдает, а полковник ... 8 10 3
    Info! Золотая раздача, скачанное не засчитывается.
    Торрент: Зарегистрирован [2019-07-11 16:26] · скачан: 9 раз
    Статус: √ проверено
    Размер: 8.49 GB
    Как cкачать? Как скачать Свет во тьме через торрент | qTorrent


    >> Регистрируемся здесь <<






    Отзывы и комментарии о схеме читаем и пишем здесь: ---> Отзывы и комментарии о схеме

    Новые благодарочки в телеграм довольных пользователей:
    скриншот   скриншот   скриншот   скриншот   скриншот
      Дорогой пользователь! Огромная просьба, поблагодарите релизера, оцените раздачу и оставьте свои комментарий, если Вы скачали Свет во тьме через торрент бесплатно! Внесите свою лепту в развитие PiratBit!
      Комментировать посты могут только пользователи прошедшие не сложную регистрацию
      Показать сообщения:    

      Свет во тьме через торрент
      Скачать бесплатно Свет во тьме
      Свет во тьме скачать торрент
      Свет во тьме смотреть онлайн
      Cкачать фильм Свет во тьме бесплатно
      Свет во тьме скачать торрент в хорошем качестве
      Свет во тьме смотреть онлайн бесплатно в хорошем качестве


      Вы не можете начинать темы
      Вы не можете отвечать на сообщения
      Вы не можете редактировать свои сообщения
      Вы не можете удалять свои сообщения
      Вы не можете голосовать в опросах
      Вы не можете прикреплять файлы к сообщениям
      Вы можете скачивать файлы