новый адрес пиратбит piratbit
Мега распродажа FORZA HORIZON 4 ULTIMATE+ВСЕ DLC+ОНЛАЙН всего за 499р. 349 руб. (супер цена). Внимание количество ограничено!!!

iTunes

1+1

iTunes

мы

iTunes

1

iTunes

Чернобыль

iTunes

Ральф против интернета

Лицензия

ПШазам

Лицензия

Игра престолов

Лицензия

30
pack

ВАЖНО

!!Акция!!

Alien_RageХит недели

RePack

Resident Evil 21

ИГРА 18+

pack

RePack

Metro:Exodus

!!Акция!!

Alien_Rage

RePack

fifa19

RePack

Assassins Creed: Odyssey

RePack

NEED FOR SPEED™ PAYBACK

3 сезон

9 сезон

Бесстыжие 9 сезон

Все сериалы

все сериалы на PB.wtf

RePack

FAR CRY 5
Ребята, катастрофически не хватает 1900р. для оплаты серверов за Октябрь (всвязи с блокировками трафик упал в 3 раза), 1-2р., выручайте.
  

Долгий путь домой / Сезон: 1 / Серии: 1-16 из 16 (Ольга Доброва-Куликова) [2014, драма, криминал, HDTV 1080i] piratbit.org

Долгий путь домой через торрент piratbit.org

Размер: 55.99 GB | Добавлен: 4 мес. 1 д. назад | Торрент скачан:5 раз
Скачать  

11-07-2019 19:03 Долгий путь домой Скачать торрент  

Долгий путь домойГод выпуска: 2014
Страна: Россия
Жанр: драма, криминал
Продолжительность: ~ 00:50:00 серия
Субтитры: отсутствуют

Режиссер: Ольга Доброва-Куликова

rating

В ролях: Дарья Мороз, Елизавета Боярская, Александр Лазарев (мл.), Артём Ткаченко, Михаил Пшеничный, Евгения Брик, Наталья Суркова, Михаил Евланов, Елизавета Васильева, Дмитрий Комов, Илья Соболев, Кристина Кириллова, Тимур Бондаренко, Александра Булычёва, Элина Богалейша-Делин, Яна Есипович, Юлиана Ромашина (Оррен), Светлана Устинова, Евгений Антропов, Кирилл Гребенщиков, Мириам Сехон, Ольга Лапшина, Ольга Кузина, Олег Васильков, Владимир Капустин, Ёла Санько, Родион Ошедший, Мария Гринько, Евгения Шипова, Александр Чевычелов, Ольга Демидова, Андрей Курилов, Юрис Лауциньш, Прадьюмна Чаттерджи, Олег Тополянский, Наталья Батрак

Описание: Она — обычная девушка — живет обычной жизнью, полной хлопот и забот. Но в один прекрасный момент ее жизнь меняется — она встречает молодого человека — такого красивого, что он кажется ей принцем на фоне деревенского пейзажа. Позже она понимает, что влюбилась в него по уши и что он, скорее всего, тот единственный, о котором она мечтала всю жизнь. Всеми способами девушка пытается выяснить, кто он и откуда приехал. Ночи напролет она мечтает только о нем и решает завоевать его любовь несмотря ни на что.

Качество: HDTV 1080i
Формат: TS

Видео: AVC, ~ 8400 Кбит/с, 1920x1080
Аудио#1: Русский (AC3, 6 ch, 384 Кбит/с)
Аудио#2: Русский (MP2, 2 ch, 192 Кбит/с)
скриншот   скриншот   скриншот   скриншот  

Общее
Идентификатор : 1 (0x1)
Полное имя : F:\Dolgiy.put.domoy.HDTV(1080i).GeneralFilm\Dolgiy.put.domoy.01.HDTV(1080i).GeneralFilm.ts
Формат : MPEG-TS
Размер файла : 3,21 Гбайт
Продолжительность : 47 м.
Общий поток : 9627 Кбит/сек

Видео
Идентификатор : 5481 (0x1569)
Идентификатор меню : 80 (0x50)
Формат : AVC
Формат/Информация : Advanced Video Codec
Профиль формата : High@L4.0
Параметр CABAC формата : Да
Параметр ReFrames формата : 3 кадра
Идентификатор кодека : 27
Продолжительность : 47 м.
Битрейт : 8569 Кбит/сек
Ширина : 1920 пикс.
Высота : 1080 пикс.
Соотношение сторон : 16:9
Частота кадров : 25,000 кадр/сек
Стандарт вещания : Component
Цветовое пространство : YUV
Подвыборка цветности : 4:2:0
Битовая глубина : 8 бит
Тип развёртки : Чересстрочная
Порядок развёртки : Верхнее поле первое
Бит/(Пиксели*Кадры) : 0.165
Размер потока : 2,86 Гбайт (89%)
Основные цвета : BT.709-5, BT.1361, IEC 61966-2-4, SMPTE RP177
Характеристики трансфера : BT.709-5, BT.1361
Коэффициенты матрицы : BT.709-5, BT.1361, IEC 61966-2-4 709, SMPTE RP177

Аудио #1
Идентификатор : 5484 (0x156C)
Идентификатор меню : 80 (0x50)
Формат : AC-3
Формат/Информация : Audio Coding 3
Расширение режима : CM (complete main)
Идентификатор кодека : 6
Продолжительность : 47 м.
Вид битрейта : Постоянный
Битрейт : 384 Кбит/сек
Каналы : 6 каналов
Расположение каналов : Front: L C R, Side: L R, LFE
Частота : 48,0 КГц
Битовая глубина : 16 бит
Метод сжатия : С потерями
Задержка видео : -80 мс.
Размер потока : 131 Мбайт (4%)
Язык : Russian

Аудио #2
Идентификатор : 5485 (0x156D)
Идентификатор меню : 80 (0x50)
Формат : MPEG Audio
Версия формата : Version 1
Профиль формата : Layer 2
Идентификатор кодека : 3
Продолжительность : 47 м.
Вид битрейта : Постоянный
Битрейт : 192 Кбит/сек
Каналы : 2 канала
Частота : 48,0 КГц
Метод сжатия : С потерями
Задержка видео : -80 мс.
Размер потока : 65,6 Мбайт (2%)
Язык : Russian

piratbit.org



Скачать Долгий путь домой через торрент http://i65.fastpic.ru/big/2014/0913/9f/6329ed00122d87a106a22feb2d05dc9f.jpeg Скачать фильм Долгий путь домой через торрент бесплантно в хорошем качестве Описание: Она — обычная девушка — живет обычной жизнью, полной хлопот и забот. Но в один прекрасный момент ее жизнь меняется — она ... 10 10 4
Info! Золотая раздача, скачанное не засчитывается.
Торрент: Зарегистрирован [2019-07-11 19:03] · скачан: 5 раз
Статус: √ проверено
Размер: 55.99 GB
Как cкачать? Как скачать Долгий путь домой через торрент | qTorrent


>> Регистрируемся здесь <<






Отзывы и комментарии о схеме читаем и пишем здесь: ---> Отзывы и комментарии о схеме

Новые благодарочки в телеграм довольных пользователей:
скриншот   скриншот   скриншот   скриншот   скриншот
    Дорогой пользователь! Огромная просьба, поблагодарите релизера, оцените раздачу и оставьте свои комментарий, если Вы скачали Долгий путь домой через торрент бесплатно! Внесите свою лепту в развитие PiratBit!
    Комментировать посты могут только пользователи прошедшие не сложную регистрацию
    Показать сообщения:    

    Долгий путь домой через торрент
    Скачать бесплатно Долгий путь домой
    Долгий путь домой скачать торрент
    Долгий путь домой смотреть онлайн
    Cкачать фильм Долгий путь домой бесплатно
    Долгий путь домой скачать торрент в хорошем качестве
    Долгий путь домой смотреть онлайн бесплатно в хорошем качестве


    Вы не можете начинать темы
    Вы не можете отвечать на сообщения
    Вы не можете редактировать свои сообщения
    Вы не можете удалять свои сообщения
    Вы не можете голосовать в опросах
    Вы не можете прикреплять файлы к сообщениям
    Вы можете скачивать файлы