1 сезон

3 сезон

iTunes

1

iTunes

DUB Netflix

iTunes

13

1 сезон

RePack

30

Deluxe

pack

Легкие деньги

ВАЖНО

ИГРА 18+

pack

RePack

MK11

RePack

jed

RePack

fifa19

RePack

RDR2

RePack

NEED FOR SPEED™ PAYBACK

4 сезон

9 сезон

Бесстыжие 9 сезон

Все сериалы

все сериалы на PB.wtf

RePack

FAR CRY 5

Anonymous, доброй ночи, мы не успеваем до 1 числа собрать деньги на оплату серверов, помогите нам пожалуйста в это трудное время. В качестве благодарности мы отключим Вам всю рекламу на сайте (укажите свой ник в строку Ваше имя)!

×
  
Magnet ссылка

Бихэппи / Сезон: 1 / Серии: 1-8 из 8 (Андрей Джунковский) [2019, драма, комедия, (18+), WEB-DL 1080p] piratbit.org

Бихэппи через торрент piratbit.org

Размер: 11.77 GB | Добавлен: 1 год 10 мес. назад | Торрент скачан:353 раза
Скачать  

12-07-2019 15:34 Бихэппи Скачать торрент  

Бихэппи Год выпуска: 2019
Страна: Россия
Жанр: драма, комедия
Продолжительность: ~ 00:45:00
Перевод: Не требуется
Субтитры: отсутствуют

Режиссер: Андрей Джунковский

Версия 18+


В ролях: Александр Паль, Шамиль Хаматов, Мария Шалаева, Максим Лагашкин, Ольга Медынич, Наталья Рудова, Алиса Гребенщикова, Антон Филипенко

Описание: Хирург онкогинеколог Аркадий возвращается с семьей из Америки в Россию. Он едет по приглашению лучшего друга на должность директора клиники, где оказывается в эпицентре интриг между врачами и высокопоставленными пациентами. Как его примет персонал? И как быть Шуре, жене Аркадия, которой пришлось ехать за любимым мужем в нелюбимую страну? Сериал «БИХЭППИ» – это ироничный взгляд на поколение тридцатилетних, у которых есть всё для счастья, а счастья нет.

Качество: WEB-DL 1080p
Формат: MKV

Видео: MPEG4 AVC Video, H264, 16:9, 1920x1080, 25 fps, ~5000 kbps, 0.096 bit/pixel
Аудио: AC3 Dolby Digital, 48.0 kHz, 2/0 (L,R) ch, 192 kbps
скриншот  скриншот  скриншот  скриншот  

General
Unique ID : 178519472778403715151208428900894122959 (0x864D998E542B88D08515BE112E9423CF)
Complete name : D:\Biheppi.2019.WEB-DL.(1080p).Getty\Biheppi.e01.2019.WEB-DL.(1080p).Getty.mkv
Format : Matroska
Format version : Version 4 / Version 2
File size : 1.53 GiB
Duration : 42 min 30 s
Overall bit rate mode : Constant
Overall bit rate : 5 147 kb/s
Movie name : Biheppi.e01.2019.WEB-DL.(1080p).Getty
Encoded date : UTC 2019-07-12 10:35:48
Writing application : mkvmerge v7.8.0 ('River Man') 32bit built on Mar 27 2015 16:18:02
Writing library : libebml v1.3.1 + libmatroska v1.4.2

Video
ID : 1
Format : AVC
Format/Info : Advanced Video Codec
Format profile : Baseline@L4
Format settings : 4 Ref Frames
Format settings, CABAC : No
Format settings, ReFrames : 4 frames
Codec ID : V_MPEG4/ISO/AVC
Duration : 42 min 30 s
Bit rate mode : Constant
Bit rate : 5 000 kb/s
Width : 1 920 pixels
Height : 1 080 pixels
Display aspect ratio : 16:9
Frame rate mode : Constant
Frame rate : 25.000 FPS
Standard : PAL
Color space : YUV
Chroma subsampling : 4:2:0
Bit depth : 8 bits
Scan type : Progressive
Bits/(Pixel*Frame) : 0.096
Stream size : 1.47 GiB (96%)
Default : Yes
Forced : No
Color range : Limited
Color primaries : BT.709
Transfer characteristics : BT.709
Matrix coefficients : BT.709

Audio
ID : 2
Format : AC-3
Format/Info : Audio Coding 3
Codec ID : A_AC3
Duration : 42 min 30 s
Bit rate mode : Constant
Bit rate : 192 kb/s
Channel(s) : 2 channels
Channel positions : Front: L R
Sampling rate : 48.0 kHz
Frame rate : 31.250 FPS (1536 SPF)
Bit depth : 16 bits
Compression mode : Lossy
Stream size : 58.4 MiB (4%)
Service kind : Complete Main
Default : Yes
Forced : No

Внимание! Раздача ведётся путём добавления новых серий; при каждом добавлении создаётся новый торрент. Чтобы начать докачку новой серии, пользователям необходимо сделать следующее:
(1) остановить скачивание,
(2) удалить старый торрент у себя из клиента (старые серии удалять не надо),
(3) скачать новый торрент и запустить его у себя в клиенте вместо старого, при этом указать клиенту путь в старую папку куда и должно происходить скачивание новых серий.

Ваш клиент при этом должен произвести хеширование (проверку) старой папки (если не производит сам - помогите ему сделать это), и будет докачивать только те серии которых у вас ещё нет. Старые серии при этом не удаляются, а продолжают раздаваться!

Eсли вы уже удалили старые серии, то предотвратить повторную закачку старых серий можно, отжав галочку в соответствующих местах при запуске нового торрента. По возможности, желательно не удалять старые серии как можно дольше чтобы релизёр не столько продолжал раздавать старые серии, а смог сконцентрироваться на новых.
piratbit.org



Скачать Бихэппи через торрент http://img16.lostpic.net/2019/07/12/587558965939dc064245960312526c1d.jpg Скачать фильм Бихэппи через торрент бесплантно в хорошем качестве Описание: Хирург онкогинеколог Аркадий возвращается с семьей из Америки в Россию. Он едет по приглашению лучшего друга на должность ... 10 10 18
Торрент: Зарегистрирован [2019-08-14 23:06] · скачан: 353 раз
Статус: √ проверено
Размер: 11.77 GB
Как cкачать? Как скачать Бихэппи через торрент | UTorrent

% Раздел Тема Автор DL S | L
TNT serials [ 9.61 GB ] Бихэппи / Сезон: 1 / Серии: 1-8 из 8 [2019 WEB-DL 720p] bober100 Скачать
1 | 0


Последний раз редактировалось: bober100 (2019-08-14 23:06), всего редактировалось 1 раз

28-11-2019 20:33  

Отключить всю рекламу на сайте

    Дорогой пользователь! Огромная просьба, поблагодарите релизера, оцените раздачу и оставьте свои комментарий, если Вы скачали Бихэппи через торрент бесплатно! Внесите свою лепту в развитие PiratBit!
    Комментировать посты могут только пользователи прошедшие не сложную регистрацию
    Показать сообщения:    

    Бихэппи через торрент
    Скачать бесплатно Бихэппи
    Бихэппи скачать торрент
    Бихэппи смотреть онлайн
    Cкачать фильм Бихэппи бесплатно
    Бихэппи скачать торрент в хорошем качестве
    Бихэппи смотреть онлайн бесплатно в хорошем качестве


    Вы не можете начинать темы
    Вы не можете отвечать на сообщения
    Вы не можете редактировать свои сообщения
    Вы не можете удалять свои сообщения
    Вы не можете голосовать в опросах
    Вы не можете прикреплять файлы к сообщениям
    Вы можете скачивать файлы