1 сезон

3 сезон

iTunes

1

iTunes

DUB Netflix

iTunes

13

1 сезон

RePack

30

Deluxe

pack

Легкие деньги

ВАЖНО

ИГРА 18+

pack

RePack

MK11

RePack

jed

RePack

fifa19

RePack

RDR2

RePack

NEED FOR SPEED™ PAYBACK

4 сезон

9 сезон

Бесстыжие 9 сезон

Все сериалы

все сериалы на PB.wtf

RePack

FAR CRY 5

Anonymous, добрый день, мы не успеваем до 1 числа собрать деньги на оплату серверов, помогите нам пожалуйста в это трудное время. В качестве благодарности мы отключим Вам всю рекламу на сайте (укажите свой ник в строку Ваше имя)!

×
  
Magnet ссылка

Бихэппи / Сезон: 1 / Серии: 1-8 из 8 (Андрей Джунковский) [2019, драма, комедия, (18+), WEB-DLRip] piratbit.org

Бихэппи через торрент piratbit.org

Размер: 4.59 GB | Добавлен: 1 год 10 мес. назад | Торрент скачан:181 раз
Скачать  

12-07-2019 15:42 Бихэппи Скачать торрент  

Бихэппи Год выпуска: 2019
Страна: Россия
Жанр: драма, комедия
Продолжительность: ~ 00:45:00
Перевод: Не требуется
Субтитры: отсутствуют

Режиссер: Андрей Джунковский

Версия 18+
скриншот  

В ролях: Александр Паль, Шамиль Хаматов, Мария Шалаева, Максим Лагашкин, Ольга Медынич, Наталья Рудова, Алиса Гребенщикова, Антон Филипенко

Описание: Хирург онкогинеколог Аркадий возвращается с семьей из Америки в Россию. Он едет по приглашению лучшего друга на должность директора клиники, где оказывается в эпицентре интриг между врачами и высокопоставленными пациентами. Как его примет персонал? И как быть Шуре, жене Аркадия, которой пришлось ехать за любимым мужем в нелюбимую страну? Сериал «БИХЭППИ» – это ироничный взгляд на поколение тридцатилетних, у которых есть всё для счастья, а счастья нет.

Качество: WEB-DLRip
Формат: AVI

Видео: XviD, ~ 1750 Кбит/с, 720x304
Аудио: AC3, 2 ch, 192 Кбит/с
скриншот  скриншот  скриншот  скриншот  

General
Complete name : D:\Biheppi.2019.WEB-DLRip.25Kuzmich\Biheppi.e01.WEB-DLRip.25Kuzmich.avi
Format : AVI
Format/Info : Audio Video Interleave
File size : 598 MiB
Duration : 42 min 30 s
Overall bit rate : 1 966 kb/s
Writing application : VirtualDubMod 1.5.10.3 | www.virtualdub-fr.org || (build 2550/release)
Writing library : VirtualDubMod build 2550/release

Video
ID : 0
Format : MPEG-4 Visual
Format profile : Advanced Simple@L5
Format settings : BVOP1
Format settings, BVOP : 1
Format settings, QPel : No
Format settings, GMC : No warppoints
Format settings, Matrix : Default (MPEG)
Codec ID : XVID
Codec ID/Hint : XviD
Duration : 42 min 30 s
Bit rate : 1 764 kb/s
Width : 720 pixels
Height : 304 pixels
Display aspect ratio : 2.35:1
Frame rate : 25.000 FPS
Color space : YUV
Chroma subsampling : 4:2:0
Bit depth : 8 bits
Scan type : Progressive
Compression mode : Lossy
Bits/(Pixel*Frame) : 0.322
Stream size : 536 MiB (90%)
Writing library : XviD 73

Audio
ID : 1
Format : AC-3
Format/Info : Audio Coding 3
Codec ID : 2000
Duration : 42 min 30 s
Bit rate mode : Constant
Bit rate : 192 kb/s
Channel(s) : 2 channels
Channel positions : Front: L R
Sampling rate : 48.0 kHz
Frame rate : 31.250 FPS (1536 SPF)
Bit depth : 16 bits
Compression mode : Lossy
Stream size : 58.4 MiB (10%)
Alignment : Split accross interleaves
Interleave, duration : 40 ms (1.00 video frame)
Interleave, preload duratio : 500 ms
Service kind : Complete Main

Внимание! Раздача ведётся путём добавления новых серий; при каждом добавлении создаётся новый торрент. Чтобы начать докачку новой серии, пользователям необходимо сделать следующее:
(1) остановить скачивание,
(2) удалить старый торрент у себя из клиента (старые серии удалять не надо),
(3) скачать новый торрент и запустить его у себя в клиенте вместо старого, при этом указать клиенту путь в старую папку куда и должно происходить скачивание новых серий.

Ваш клиент при этом должен произвести хеширование (проверку) старой папки (если не производит сам - помогите ему сделать это), и будет докачивать только те серии которых у вас ещё нет. Старые серии при этом не удаляются, а продолжают раздаваться!

Eсли вы уже удалили старые серии, то предотвратить повторную закачку старых серий можно, отжав галочку в соответствующих местах при запуске нового торрента. По возможности, желательно не удалять старые серии как можно дольше чтобы релизёр не столько продолжал раздавать старые серии, а смог сконцентрироваться на новых.
piratbit.org



Скачать Бихэппи через торрент http://img16.lostpic.net/2019/07/12/587558965939dc064245960312526c1d.jpg Скачать фильм Бихэппи через торрент бесплантно в хорошем качестве Описание: Хирург онкогинеколог Аркадий возвращается с семьей из Америки в Россию. Он едет по приглашению лучшего друга на должность ... 9.9 10 14
Торрент: Зарегистрирован [2019-08-14 23:05] · скачан: 181 раз
Статус: √ проверено
Размер: 4.59 GB
Как cкачать? Как скачать Бихэппи через торрент | UTorrent

28-11-2019 20:33  

Отключить всю рекламу на сайте

    Дорогой пользователь! Огромная просьба, поблагодарите релизера, оцените раздачу и оставьте свои комментарий, если Вы скачали Бихэппи через торрент бесплатно! Внесите свою лепту в развитие PiratBit!
    Комментировать посты могут только пользователи прошедшие не сложную регистрацию
    Показать сообщения:    

    Бихэппи через торрент
    Скачать бесплатно Бихэппи
    Бихэппи скачать торрент
    Бихэппи смотреть онлайн
    Cкачать фильм Бихэппи бесплатно
    Бихэппи скачать торрент в хорошем качестве
    Бихэппи смотреть онлайн бесплатно в хорошем качестве


    Вы не можете начинать темы
    Вы не можете отвечать на сообщения
    Вы не можете редактировать свои сообщения
    Вы не можете удалять свои сообщения
    Вы не можете голосовать в опросах
    Вы не можете прикреплять файлы к сообщениям
    Вы можете скачивать файлы