Мега распродажа FORZA HORIZON 4 ULTIMATE+ВСЕ DLC+ОНЛАЙН всего за 499р. 349 руб. (супер цена). Внимание количество ограничено!!!

iTunes

1+1

iTunes

мы

iTunes

1

1 сезон

Чернобыль

1 сезон

Ральф против интернета

Лицензия

ПШазам

8 сезон

Игра престолов

Лицензия

30
pack

ВАЖНО

!!Акция!!

Alien_RageХит недели

RePack

Resident Evil 21

ИГРА 18+

pack

RePack

Metro:Exodus

!!Акция!!

Alien_Rage

RePack

fifa19

RePack

Assassins Creed: Odyssey

RePack

NEED FOR SPEED™ PAYBACK

3 сезон

9 сезон

Бесстыжие 9 сезон

Все сериалы

все сериалы на PB.wtf

RePack

FAR CRY 5
Ребята, катастрофически не хватает 2730р. для оплаты серверов за ИЮНЬ (всвязи с блокировками трафик упал в 3 раза), 1-2р., выручайте.
  

Шлюха / Whore (Кен Рассел / Ken Russell) [1991 Драма, WEB-DLRip 720p от KORSAR] [MVO +DVO + AVO (Андрей Гаврилов)] piratbit.org

Шлюха через торрент piratbit.org

Размер: 3.57 GB | Добавлен: 9 д. назад | Торрент скачан:39 раз
Скачать  

14-07-2019 06:37 Шлюха Скачать торрент  

Шлюха / Whore

Страна: США, Великобритания
Жанр: Драма
Год выпуска: 1991
Продолжительность: 01:25:20

Режиссер: Кен Рассел / Ken Russell

В ролях: Тереза Расселл, Майкл Крэбтри, Джон Дил, Антонио Фаргас, Роберт О`Рейли, Чарльз Макколей, Джейсон Кристофер, Джек Нэнс, Фрэнк Смит

Описание: Лиз молода и красива, цинична и рассудительна, напориста и боязлива. Секс ее бизнес и она в нем знает толк. Соблазнительные движения, которые возбуждают мужчин, слова, которые они хотят слышать.
Она готова выполнить любую просьбу своего клиента потому, что именно за это ей и платят. Если конечно платят…

Релиз от:

Продолжительность: 01:24:55
Перевод: Профессиональный двухголосый, профессиональный многоголосый, авторский
Субтитры: Русские, английские
Навигация по главам: Есть

Качество: WEB-DLRip 720p
Формат: MKV

Видео: MPEG-4 AVC, 5220 Кбит/сек, 1280x720, 23,976 кадра/сек
Аудио #1: AC3, 2 ch, 192 Кбит/сек | Русский, профессиональный (двухголосый закадровый) Neoclassica
Аудио #2: AC3, 2 ch, 192 Кбит/сек | Русский, профессиональный (многоголосый закадровый) Екатеринбург Арт, VHS
Аудио #3: AC3, 2 ch, 192 Кбит/сек | Русский, авторский (одноголосый закадровый) Андрей Гаврилов
Аудио #4: EAC3, 2 ch, 224 Кбит/сек | Английский, оригинал
Общее
Уникальный идентификатор : 206432182434522553308763070312632237900 (0x9B4D6464D52EB9B6B507311071073F4C)
Полное имя : Шлюха.1991.WEB-DLRip.720p.KORSAR.mkv
Формат : Matroska
Версия формата : Version 2
Размер файла : 3,57 Гбайт
Продолжительность : 1 ч. 24 м.
Общий поток : 6022 Кбит/сек
Дата кодирования : UTC 2017-08-02 04:52:22
Программа кодирования : mkvmerge v5.8.0 ('No Sleep / Pillow') built on Sep 2 2012 15:37:04
Библиотека кодирования : libebml v1.2.3 + libmatroska v1.3.0

Видео
Идентификатор : 1
Формат : AVC
Формат/Информация : Advanced Video Codec
Профиль формата : High@L4.1
Настройки формата : CABAC / 9 Ref Frames
Параметр CABAC формата : Да
Параметр RefFrames формата : 9 кадров
Идентификатор кодека : V_MPEG4/ISO/AVC
Продолжительность : 1 ч. 24 м.
Битрейт : 5220 Кбит/сек
Ширина : 1280 пикселей
Высота : 720 пикселей
Соотношение сторон : 16:9
Режим частоты кадров : Постоянный
Частота кадров : 23,976 (24000/1001) кадра/сек
Цветовое пространство : YUV
Субдискретизация насыщенности : 4:2:0
Битовая глубина : 8 бит
Тип развёртки : Прогрессивная
Бит/(Пиксели*Кадры) : 0.236
Размер потока : 3,03 Гбайт (85%)
Заголовок : RIP - MZMA
Библиотека кодирования : x264 core 148 r2744kMod b97ae06
Настройки программы : cabac=1 / ref=9 / deblock=1:-3:-3 / analyse=0x3:0x113 / me=umh / subme=11 / psy=1 / fade_compensate=0.00 / psy_rd=1.00:0.00 / mixed_ref=1 / me_range=64 / chroma_me=1 / trellis=2 / 8x8dct=1 / cqm=0 / deadzone=21,11 / fast_pskip=0 / chroma_qp_offset=-2 / threads=6 / lookahead_threads=1 / sliced_threads=0 / nr=0 / decimate=0 / interlaced=0 / bluray_compat=0 / constrained_intra=0 / bframes=16 / b_pyramid=2 / b_adapt=2 / b_bias=0 / direct=3 / weightb=1 / open_gop=0 / weightp=2 / keyint=250 / keyint_min=23 / scenecut=40 / intra_refresh=0 / rc_lookahead=60 / rc=2pass / mbtree=1 / bitrate=5220 / ratetol=1.0 / qcomp=0.60 / qpmin=0 / qpmax=69 / qpstep=4 / cplxblur=20.0 / qblur=0.5 / vbv_maxrate=50000 / vbv_bufsize=62500 / nal_hrd=none / filler=0 / ip_ratio=1.40 / aq=3:1.00
Язык : English
Default : Да
Forced : Нет
Цветовой диапазон : Limited
Основные цвета : BT.709
Характеристики трансфера : BT.709
Коэффициенты матрицы : BT.709

Аудио #1
Идентификатор : 2
Формат : AC-3
Формат/Информация : Audio Coding 3
Идентификатор кодека : A_AC3
Продолжительность : 1 ч. 24 м.
Вид битрейта : Постоянный
Битрейт : 192 Кбит/сек
Каналы : 2 канала
Расположение каналов : Front: L R
Частота : 48,0 КГц
Частота кадров : 31,250 кадров/сек (1536 SPF)
Битовая глубина : 16 бит
Метод сжатия : С потерями
Размер потока : 117 Мбайт (3%)
Заголовок : DVO | Neoclassica
Язык : Russian
По умолчанию : Да
Принудительно : Нет

Аудио #2
Идентификатор : 3
Формат : AC-3
Формат/Информация : Audio Coding 3
Идентификатор кодека : A_AC3
Продолжительность : 1 ч. 24 м.
Вид битрейта : Постоянный
Битрейт : 192 Кбит/сек
Каналы : 2 канала
Расположение каналов : Front: L R
Частота : 48,0 КГц
Частота кадров : 31,250 кадров/сек (1536 SPF)
Битовая глубина : 16 бит
Метод сжатия : С потерями
Размер потока : 117 Мбайт (3%)
Заголовок : MVO | Екатеринбург Арт
Язык : Russian
По умолчанию : Нет
Принудительно : Нет

Аудио #3
Идентификатор : 4
Формат : AC-3
Формат/Информация : Audio Coding 3
Идентификатор кодека : A_AC3
Продолжительность : 1 ч. 24 м.
Вид битрейта : Постоянный
Битрейт : 192 Кбит/сек
Каналы : 2 канала
Расположение каналов : Front: L R
Частота : 48,0 КГц
Частота кадров : 31,250 кадров/сек (1536 SPF)
Битовая глубина : 16 бит
Метод сжатия : С потерями
Размер потока : 117 Мбайт (3%)
Заголовок : AVO | А. Гаврилов
Язык : Russian
По умолчанию : Нет
Принудительно : Нет

Аудио #4
Идентификатор : 5
Формат : E-AC-3
Формат/Информация : Enhanced Audio Coding 3
Идентификатор кодека : A_EAC3
Продолжительность : 1 ч. 24 м.
Вид битрейта : Постоянный
Битрейт : 224 Кбит/сек
Каналы : 2 канала
Расположение каналов : Front: L R
Частота : 48,0 КГц
Частота кадров : 187,500 кадров/сек (256 SPF)
Метод сжатия : С потерями
Размер потока : 136 Мбайт (4%)
Заголовок : Original
Язык : English
По умолчанию : Нет
Принудительно : Нет

Текст #1
Идентификатор : 6
Формат : UTF-8
Идентификатор кодека : S_TEXT/UTF8
Идентификатор кодека/Информация : UTF-8 Plain Text
Язык : Russian
По умолчанию : Нет
Принудительно : Нет

Текст #2
Идентификатор : 7
Формат : UTF-8
Идентификатор кодека : S_TEXT/UTF8
Идентификатор кодека/Информация : UTF-8 Plain Text
Язык : English
По умолчанию : Нет
Принудительно : Нет

Меню
00:00:00.299 : en:Chapter 1
00:05:14.906 : en:Chapter 2
00:11:55.014 : en:Chapter 3
00:25:09.140 : en:Chapter 4
00:27:04.422 : en:Chapter 5
00:37:43.310 : en:Chapter 6
00:43:43.086 : en:Chapter 7
00:52:18.309 : en:Chapter 8
00:53:51.236 : en:Chapter 9
00:58:56.666 : en:Chapter 10
01:01:46.168 : en:Chapter 11
01:13:15.232 : en:Chapter 12
piratbit.org



Скачать Шлюха через торрент https://c.radikal.ru/c04/1907/93/1a21c5c96383.png Скачать фильм Шлюха через торрент бесплантно в хорошем качестве Описание: Лиз молода и красива, цинична и рассудительна, напориста и боязлива. Секс ее бизнес и она в нем знает толк. Соблазнительные ... 9 10 1
Info! Золотая раздача, скачанное не засчитывается.
Торрент: Зарегистрирован [2019-07-14 06:37] · скачан: 39 раз
Статус: √ проверено
Размер: 3.57 GB
Как cкачать? Как скачать Шлюха через торрент | qTorrent

% Раздел Тема Автор DL S | L
Мамочки [ 317 MB ] От двери до двери шлюхи / Julia Ann Brandi Love [2012 Big Tits Blonde Blowjob Milf Threesome Doggystyle SATRip] tier-kun Скачать
2 | 0
Порно фильмы HD [ 25.77 GB ] Моя Невестка Шлюха / My Daughter-in-Law is a Whore [2017 Big Tits European Family Roleplay Feature Old & Young Females Weddings Threesome Lingerie WEB-DL 2160p Оригинальный] nn99nn Скачать
1 | 0
Гонзо [ 1.46 GB ] Непослушная Алиса Моя Жизнь Шлюхи 9 / Naughty Alyshas My Whore Life 9 [2015 Big Boobs Big Butt Blondes Gonzo Milf Naturally Busty Star showcase Reality Porn VOD Оригинальный] nn99nn Скачать
1 | 0
Порно фильмы HD [ 2.89 GB ] Складские Шлюхи / Warehouse Whores [2011 All Sex Anal Oral Gonzo BigTits Pantyhose European Facial WEB-DL 720p] nn99nn Скачать
1 | 0
Порно фильмы HD [ 1.73 GB ] Моя Сестра Шлюха / Ma Soeur Est Une Putain / My Sister Is A Whore [2016 Feature Foreign Straight Anal Oral DP Threesome WEB-DLRip 720p] sheker187 Скачать
2 | 0
Порно фильмы HD [ 8.22 GB ] Меченые Шлюхи 3 / Whores Ink 3 [2016 Gonzo Tattoo Anal WEB-DL 720p Оригинальный] DJASFUL Скачать
1 | 0
Гонзо [ 3.29 GB ] Меченые Шлюхи 3 / Whores Ink 3 [2016 All Sex Anal Oral Gonzo BigTits WEB-DLRip 544p] Split Scenes sheker187 Скачать
1 | 0


>> Регистрируемся здесь <<






Отзывы и комментарии о схеме читаем и пишем здесь: ---> Отзывы и комментарии о схеме

Новые благодарочки в телеграм довольных пользователей:
скриншот   скриншот   скриншот   скриншот   скриншот
    Дорогой пользователь! Огромная просьба, поблагодарите релизера, оцените раздачу и оставьте свои комментарий, если Вы скачали Шлюха через торрент бесплатно! Внесите свою лепту в развитие PiratBit!
    Комментировать посты могут только пользователи прошедшие не сложную регистрацию
    Показать сообщения:    

    Шлюха через торрент
    Скачать бесплатно Шлюха
    Шлюха скачать торрент
    Шлюха смотреть онлайн
    Cкачать фильм Шлюха бесплатно
    Шлюха скачать торрент в хорошем качестве
    Шлюха смотреть онлайн бесплатно в хорошем качестве


    Вы не можете начинать темы
    Вы не можете отвечать на сообщения
    Вы не можете редактировать свои сообщения
    Вы не можете удалять свои сообщения
    Вы не можете голосовать в опросах
    Вы не можете прикреплять файлы к сообщениям
    Вы можете скачивать файлы