Мега распродажа FORZA HORIZON 4 ULTIMATE+ВСЕ DLC+ОНЛАЙН всего за 499р. 349 руб. (супер цена). Внимание количество ограничено!!!

iTunes

1+1

iTunes

мы

iTunes

1

1 сезон

Чернобыль

1 сезон

Ральф против интернета

Лицензия

ПШазам

8 сезон

Игра престолов

Лицензия

30
pack

ВАЖНО

!!Акция!!

Alien_RageХит недели

RePack

Resident Evil 21

ИГРА 18+

pack

RePack

Metro:Exodus

!!Акция!!

Alien_Rage

RePack

fifa19

RePack

Assassins Creed: Odyssey

RePack

NEED FOR SPEED™ PAYBACK

3 сезон

9 сезон

Бесстыжие 9 сезон

Все сериалы

все сериалы на PB.wtf

RePack

FAR CRY 5
Ребята, катастрофически не хватает 2730р. для оплаты серверов за ИЮНЬ (всвязи с блокировками трафик упал в 3 раза), 1-2р., выручайте.
  

Святой / The Saint (Филлип Нойс / Phillip Noyce) [1997, Шпионский боевик, WEB-DL 1080p от KORSAR] [DUB + 3xMVO + 2xAVO + 2xVO + 2xMVO (ukr)] piratbit.org

Святой через торрент piratbit.org

Раздают: 1 [ 0 KB/s ]
Размер: 12.92 GB | Добавлен: 9 д. назад | Торрент скачан:7 раз
Скачать  

14-07-2019 07:46 Святой Скачать торрент  

Святой / The Saint

Страна: США
Жанр: Шпионский боевик
Год выпуска: 1997
Продолжительность: 01:56:10

Режиссер: Филлип Нойс / Phillip Noyce

В ролях: Вэл Килмер, Элизабет Шу, Раде Шербеджия, Валерий Николаев, Генри Гудман, Алан
Армстронг, Майкл Бирн, Евгений Лазарев, Ирина Апексимова, Лев Прыгунов

Описание: Вэл Килмер играет роль знаменитого шпиона Саймона Тамплиера, завоевавшего
репутацию неуловимого из-за своего редчайшего дара перевоплощения. Уставший от участия в
сомнительных предприятиях, Саймон решает, что следующее задание станет последним.
Однако оно обещает быть нешуточным. Могущественный промышленный магнат из России Иван
Третьяк поручает Саймону добыть сенсационную технологию производства самой дешевой в мире
энергии, разработанную гениальным ученым Эммой Рассел.
С помощью этой технологии он намерен подчинить себе Россию, переживающую не лучшие
времена. В дальнейшие планы магната входит мировое господство…

Релиз от:

Продолжительность: 01:56:10
Перевод: Дублированный, профессиональный многоголосый, авторский, любительский
Субтитры: Русские, английские, английские вшитые (хардсаб), на русскую речь
Навигация по главам: Есть

Качество: WEB-DL 1080p
Формат: MKV

Видео: MPEG-4 AVC, 12,0 Мбит/сек, 1920x816, 23,976 кадра/сек
Аудио #01: AC3, 2 ch, 384 Кбит/сек | Русский, профессиональный (полное дублирование) Премьер Видео Фильм (VHS)
Аудио #02: AC3, 2 ch, 192 Кбит/сек | Русский, профессиональный (многоголосый закадровый) НТВ
Аудио #03: AC3, 5 ch, 384 Кбит/сек | Русский, профессиональный (многоголосый закадровый) Карусель
Аудио #04: AC3, 2 ch, 192 Кбит/сек | Русский, профессиональный (многоголосый закадровый) ТВ3
Аудио #05: AC3, 6 ch, 448 Кбит/сек | Русский, авторский (одноголосый закадровый) Диктор CDV
Аудио #06: AC3, 6 ch, 384 Кбит/сек | Ру3xсский, авторский (одноголосый закадровый) Юрий Живов
Аудио #07: AC3, 2 ch, 192 Кбит/сек | Русский, любительский (одноголосый закадровый) Алексей? Толмачев
Аудио #08: AC3, 2 ch, 224 Кбит/сек | Русский, любительский (одноголосый закадровый) Николай? Антонов, Буратино
Аудио #09: AC3, 2 ch, 192 Кбит/сек | Украинский, профессиональный (многоголосый закадровый) ICTV
Аудио #10: AC3, 2 ch, 192 Кбит/сек | Украинский, профессиональный (многоголосый закадровый) ІНТЕР
Аудио #11: EAC3, 6 ch, 640 Кбит/сек | Английский, оригинал
Аудио #12: EAC3, 2 ch, 224 Кбит/сек | Английский, оригинал
Общее
Уникальный идентификатор : 214436554334883946820049457753132975796 (0xA152FA65D769E7B6A7A21AA4D97146B4)
Полное имя : Святой.1997.WEB-DL.1080p.mkv
Формат : Matroska
Версия формата : Version 2
Размер файла : 12,9 Гбайт
Продолжительность : 1 ч. 56 м.
Режим общего битрейта : Переменный
Общий поток : 15,9 Мбит/сек
Дата кодирования : UTC 2018-05-29 22:44:23
Программа кодирования : mkvmerge v5.8.0 ('No Sleep / Pillow') built on Sep 2 2012 15:37:04
Библиотека кодирования : libebml v1.2.3 + libmatroska v1.3.0

Видео
Идентификатор : 1
Формат : AVC
Формат/Информация : Advanced Video Codec
Профиль формата : High@L4
Настройки формата : CABAC / 4 Ref Frames
Параметр CABAC формата : Да
Параметр RefFrames формата : 4 кадра
Идентификатор кодека : V_MPEG4/ISO/AVC
Продолжительность : 1 ч. 56 м.
Вид битрейта : Переменный
Битрейт : 12,0 Мбит/сек
Максимальный битрейт : 15,0 Мбит/сек
Ширина : 1920 пикселей
Высота : 816 пикселей
Соотношение сторон : 2,35:1
Режим частоты кадров : Постоянный
Частота кадров : 23,976 (24000/1001) кадра/сек
Цветовое пространство : YUV
Субдискретизация насыщенности : 4:2:0
Битовая глубина : 8 бит
Тип развёртки : Прогрессивная
Бит/(Пиксели*Кадры) : 0.318
Размер потока : 9,70 Гбайт (75%)
Язык : English
Default : Да
Forced : Нет
Цветовой диапазон : Limited
Основные цвета : BT.709
Характеристики трансфера : BT.709
Коэффициенты матрицы : BT.709

Аудио #1
Идентификатор : 2
Формат : AC-3
Формат/Информация : Audio Coding 3
Идентификатор кодека : A_AC3
Продолжительность : 1 ч. 56 м.
Вид битрейта : Постоянный
Битрейт : 384 Кбит/сек
Каналы : 2 канала
Расположение каналов : Front: L R
Частота : 48,0 КГц
Частота кадров : 31,250 кадров/сек (1536 SPF)
Битовая глубина : 16 бит
Метод сжатия : С потерями
Размер потока : 319 Мбайт (2%)
Заголовок : DUB | Премьер Видео Фильм
Язык : Russian
По умолчанию : Да
Принудительно : Нет

Аудио #2
Идентификатор : 3
Формат : AC-3
Формат/Информация : Audio Coding 3
Идентификатор кодека : A_AC3
Продолжительность : 1 ч. 56 м.
Вид битрейта : Постоянный
Битрейт : 192 Кбит/сек
Каналы : 2 канала
Расположение каналов : Front: L R
Частота : 48,0 КГц
Частота кадров : 31,250 кадров/сек (1536 SPF)
Битовая глубина : 16 бит
Метод сжатия : С потерями
Размер потока : 160 Мбайт (1%)
Заголовок : MVO | НТВ
Язык : Russian
По умолчанию : Нет
Принудительно : Нет

Аудио #3
Идентификатор : 4
Формат : AC-3
Формат/Информация : Audio Coding 3
Идентификатор кодека : A_AC3
Продолжительность : 1 ч. 56 м.
Вид битрейта : Постоянный
Битрейт : 384 Кбит/сек
Каналы : 5 каналов
Расположение каналов : Front: L C R, Side: L R
Частота : 48,0 КГц
Частота кадров : 31,250 кадров/сек (1536 SPF)
Битовая глубина : 16 бит
Метод сжатия : С потерями
Размер потока : 319 Мбайт (2%)
Заголовок : MVO | Карусель
Язык : Russian
По умолчанию : Нет
Принудительно : Нет

Аудио #4
Идентификатор : 5
Формат : AC-3
Формат/Информация : Audio Coding 3
Идентификатор кодека : A_AC3
Продолжительность : 1 ч. 56 м.
Вид битрейта : Постоянный
Битрейт : 192 Кбит/сек
Каналы : 2 канала
Расположение каналов : Front: L R
Частота : 48,0 КГц
Частота кадров : 31,250 кадров/сек (1536 SPF)
Битовая глубина : 16 бит
Метод сжатия : С потерями
Размер потока : 160 Мбайт (1%)
Заголовок : MVO | ТВ3
Язык : Russian
По умолчанию : Нет
Принудительно : Нет

Аудио #5
Идентификатор : 6
Формат : AC-3
Формат/Информация : Audio Coding 3
Идентификатор кодека : A_AC3
Продолжительность : 1 ч. 56 м.
Вид битрейта : Постоянный
Битрейт : 448 Кбит/сек
Каналы : 6 каналов
Расположение каналов : Front: L C R, Side: L R, LFE
Частота : 48,0 КГц
Частота кадров : 31,250 кадров/сек (1536 SPF)
Битовая глубина : 16 бит
Метод сжатия : С потерями
Размер потока : 372 Мбайт (3%)
Заголовок : AVO | Диктор CDV
Язык : Russian
По умолчанию : Нет
Принудительно : Нет

Аудио #6
Идентификатор : 7
Формат : AC-3
Формат/Информация : Audio Coding 3
Идентификатор кодека : A_AC3
Продолжительность : 1 ч. 56 м.
Вид битрейта : Постоянный
Битрейт : 384 Кбит/сек
Каналы : 6 каналов
Расположение каналов : Front: L C R, Side: L R, LFE
Частота : 48,0 КГц
Частота кадров : 31,250 кадров/сек (1536 SPF)
Битовая глубина : 16 бит
Метод сжатия : С потерями
Размер потока : 319 Мбайт (2%)
Заголовок : AVO | Ю. Живов
Язык : Russian
По умолчанию : Нет
Принудительно : Нет

Аудио #7
Идентификатор : 8
Формат : AC-3
Формат/Информация : Audio Coding 3
Идентификатор кодека : A_AC3
Продолжительность : 1 ч. 56 м.
Вид битрейта : Постоянный
Битрейт : 192 Кбит/сек
Каналы : 2 канала
Расположение каналов : Front: L R
Частота : 48,0 КГц
Частота кадров : 31,250 кадров/сек (1536 SPF)
Битовая глубина : 16 бит
Метод сжатия : С потерями
Размер потока : 160 Мбайт (1%)
Заголовок : VO | А. Толмачев
Язык : Russian
По умолчанию : Нет
Принудительно : Нет

Аудио #8
Идентификатор : 9
Формат : AC-3
Формат/Информация : Audio Coding 3
Идентификатор кодека : A_AC3
Продолжительность : 1 ч. 56 м.
Вид битрейта : Постоянный
Битрейт : 224 Кбит/сек
Каналы : 2 канала
Расположение каналов : Front: L R
Частота : 48,0 КГц
Частота кадров : 31,250 кадров/сек (1536 SPF)
Битовая глубина : 16 бит
Метод сжатия : С потерями
Размер потока : 186 Мбайт (1%)
Заголовок : VO | Н. Антонов, Буратино
Язык : Russian
По умолчанию : Нет
Принудительно : Нет

Аудио #9
Идентификатор : 10
Формат : AC-3
Формат/Информация : Audio Coding 3
Идентификатор кодека : A_AC3
Продолжительность : 1 ч. 56 м.
Вид битрейта : Постоянный
Битрейт : 192 Кбит/сек
Каналы : 2 канала
Расположение каналов : Front: L R
Частота : 48,0 КГц
Частота кадров : 31,250 кадров/сек (1536 SPF)
Битовая глубина : 16 бит
Метод сжатия : С потерями
Размер потока : 160 Мбайт (1%)
Заголовок : MVO | ICTV
Язык : Ukrainian
По умолчанию : Нет
Принудительно : Нет

Аудио #10
Идентификатор : 11
Формат : AC-3
Формат/Информация : Audio Coding 3
Идентификатор кодека : A_AC3
Продолжительность : 1 ч. 56 м.
Вид битрейта : Постоянный
Битрейт : 192 Кбит/сек
Каналы : 2 канала
Расположение каналов : Front: L R
Частота : 48,0 КГц
Частота кадров : 31,250 кадров/сек (1536 SPF)
Битовая глубина : 16 бит
Метод сжатия : С потерями
Размер потока : 160 Мбайт (1%)
Заголовок : MVO | ІНТЕР
Язык : Ukrainian
По умолчанию : Нет
Принудительно : Нет

Аудио #11
Идентификатор : 12
Формат : E-AC-3
Формат/Информация : Enhanced Audio Coding 3
Идентификатор кодека : A_EAC3
Продолжительность : 1 ч. 56 м.
Вид битрейта : Постоянный
Битрейт : 640 Кбит/сек
Каналы : 6 каналов
Расположение каналов : Front: L C R, Side: L R, LFE
Частота : 48,0 КГц
Частота кадров : 187,500 кадров/сек (256 SPF)
Метод сжатия : С потерями
Размер потока : 532 Мбайт (4%)
Заголовок : Original | 5.1
Язык : English
По умолчанию : Нет
Принудительно : Нет

Аудио #12
Идентификатор : 13
Формат : E-AC-3
Формат/Информация : Enhanced Audio Coding 3
Идентификатор кодека : A_EAC3
Продолжительность : 1 ч. 56 м.
Вид битрейта : Постоянный
Битрейт : 224 Кбит/сек
Каналы : 2 канала
Расположение каналов : Front: L R
Частота : 48,0 КГц
Частота кадров : 187,500 кадров/сек (256 SPF)
Метод сжатия : С потерями
Размер потока : 186 Мбайт (1%)
Заголовок : Original | 2.0
Язык : English
По умолчанию : Нет
Принудительно : Нет

Текст #1
Идентификатор : 14
Формат : UTF-8
Идентификатор кодека : S_TEXT/UTF8
Идентификатор кодека/Информация : UTF-8 Plain Text
Язык : Russian
По умолчанию : Нет
Принудительно : Нет

Текст #2
Идентификатор : 15
Формат : UTF-8
Идентификатор кодека : S_TEXT/UTF8
Идентификатор кодека/Информация : UTF-8 Plain Text
Заголовок : 1
Язык : English
По умолчанию : Нет
Принудительно : Нет

Текст #3
Идентификатор : 16
Формат : UTF-8
Идентификатор кодека : S_TEXT/UTF8
Идентификатор кодека/Информация : UTF-8 Plain Text
Заголовок : 2
Язык : English
По умолчанию : Нет
Принудительно : Нет

Текст #4
Идентификатор : 17
Формат : UTF-8
Идентификатор кодека : S_TEXT/UTF8
Идентификатор кодека/Информация : UTF-8 Plain Text
Заголовок : SDH
Язык : English
По умолчанию : Нет
Принудительно : Нет

Меню
00:00:00.000 : en:Simon the Magician
00:07:23.800 : en:Friends, Countrymen, Russians
00:11:53.201 : en:The Microchip
00:16:27.503 : en:Martin De Porres
00:21:14.305 : en:Bruno Hautenfaust
00:27:32.239 : en:Cold Fusion Mumbo Jumbo
00:34:09.111 : en:Thomas More
00:39:29.513 : en:What's Your Name
00:44:15.815 : en:An Angel
00:49:20.517 : en:The Spider and the Fly
00:55:33.482 : en:Double Take
01:00:05.985 : en:You Found Me
01:05:55.087 : en:On Thin Ice
01:11:27.890 : en:Russian Hospitality
01:17:32.892 : en:Plus or Minus
01:20:20.993 : en:A Diversion
01:25:50.196 : en:My Personal Saint
01:31:42.198 : en:"Oh, Ye of Little Faith."
01:38:13.801 : en:Revelation in Red Square
01:42:00.002 : en:I Know You
01:49:19.413 : en:Her Biggest Fan
• Исходник видео WEB-DL Amazon.
В данном релизе видеоряд короче на две секунды, по сравнению с некоторыми предыдущим релизами этого фильма.
Примерно к средине фильма переход между сценами на две секунды меньше.
Поэтому, в некоторых релизах, сделанных с данного видео исходника, со средины фильма, может наблюдаться рассинхрон - запаздывание звука на две секунды.
piratbit.org



Скачать Святой через торрент https://b.radikal.ru/b01/1907/8e/6425b3bc3753.png Скачать фильм Святой через торрент бесплантно в хорошем качестве Описание: Вэл Килмер играет роль знаменитого шпиона Саймона Тамплиера, завоевавшегорепутацию неуловимого из-за своего редчайшего дара ... 5 10 1
Торрент: Зарегистрирован [2019-07-14 07:46] · скачан: 7 раз
Статус: √ проверено
Размер: 12.92 GB
Как cкачать? Как скачать Святой через торрент | qTorrent

% Раздел Тема Автор DL S | L
Документальные фильмы и телепередачи [ 702 MB ] Viasat History: Султан и святой / The Sultan and the Saint [2016 документальный HDTVRip] VO Armstrong Скачать
1 | 0
Документальные фильмы и телепередачи [ 1.5 GB ] Viasat History: Султан и святой / The Sultan and the Saint [2016 документальный HDTVRip 1080p] Armstrong Скачать
1 | 0
Фильмы (HD 720p, 1080p) (48-60 fps) [ 3.82 GB ] Святые из Бундока 2: День всех святых / The Boondock Saints II: All Saints Day [2009 BDRip 720p многоголосый ] slaventi-69 Скачать
1 | 2
Фильмы [HD 720p, 1080p] (Хороший звук DUB, MVO) [ 17.77 GB ] Святые из трущоб / Святые из Бундока / The Boondock Saints [1999 BDRip 1080p] 2xMVO + DVO + AVO + Original Eng -Lexx- Скачать
1 | 0
Фильмы с авторской озвучкой [ 1.45 GB ] Святые из трущоб / The Boondock Saints [1999 HDRip] [AVO] killermax2013 Скачать
2 | 0
Фильмы 2009 [ 1.45 GB ] Святые из бундока 2: День всех святых / The Boondock Saints II: All Saints Day [2009 BDRip-AVC MVO] stalonе Скачать
1 | 0
T Релизы по Парсеру [Игры, Сериалы и Фильмы и другое...] [ 3.4 GB ] Святой / The Saint [2017 WEB-DL 1080p Любительский ] Dusster Скачать
1 | 0


>> Регистрируемся здесь <<






Отзывы и комментарии о схеме читаем и пишем здесь: ---> Отзывы и комментарии о схеме

Новые благодарочки в телеграм довольных пользователей:
скриншот   скриншот   скриншот   скриншот   скриншот
    Дорогой пользователь! Огромная просьба, поблагодарите релизера, оцените раздачу и оставьте свои комментарий, если Вы скачали Святой через торрент бесплатно! Внесите свою лепту в развитие PiratBit!
    Комментировать посты могут только пользователи прошедшие не сложную регистрацию
    Показать сообщения:    

    Святой через торрент
    Скачать бесплатно Святой
    Святой скачать торрент
    Святой смотреть онлайн
    Cкачать фильм Святой бесплатно
    Святой скачать торрент в хорошем качестве
    Святой смотреть онлайн бесплатно в хорошем качестве


    Вы не можете начинать темы
    Вы не можете отвечать на сообщения
    Вы не можете редактировать свои сообщения
    Вы не можете удалять свои сообщения
    Вы не можете голосовать в опросах
    Вы не можете прикреплять файлы к сообщениям
    Вы можете скачивать файлы