Мега распродажа FORZA HORIZON 4 ULTIMATE+ВСЕ DLC+ОНЛАЙН всего за 499р. 349 руб. (супер цена). Внимание количество ограничено!!!

iTunes

1+1

iTunes

мы

iTunes

1

1 сезон

Чернобыль

1 сезон

Ральф против интернета

Лицензия

ПШазам

8 сезон

Игра престолов

Лицензия

30
pack

ВАЖНО

!!Акция!!

Alien_RageХит недели

RePack

Resident Evil 21

ИГРА 18+

pack

RePack

Metro:Exodus

!!Акция!!

Alien_Rage

RePack

fifa19

RePack

Assassins Creed: Odyssey

RePack

NEED FOR SPEED™ PAYBACK

3 сезон

9 сезон

Бесстыжие 9 сезон

Все сериалы

все сериалы на PB.wtf

RePack

FAR CRY 5
Ребята, катастрофически не хватает 2730р. для оплаты серверов за ИЮНЬ (всвязи с блокировками трафик упал в 3 раза), 1-2р., выручайте.
  

Недотепы / Chain of Fools (Трэктор / Traktor) [2000, Комедия, криминал, WEB-DL 1080p от KORSAR] [Dub+DVO] piratbit.org

Недотепы через торрент piratbit.org

Раздают: 1 [ 0 KB/s ]
Размер: 4.77 GB | Добавлен: 9 д. назад | Торрент скачан:21 раз
Скачать  

14-07-2019 08:37 Недотепы Скачать торрент  

Недотепы / Chain of Fools
Год выпуска: 2000
Страна: США, Warner Bros. Pictures
Жанр: Комедия, криминал
Продолжительность: 01:38:24
Режиссер: Трэктор / Traktor
В ролях: Стив Зан, Сальма Хайек, Джефф Голдблюм, Элайджа Вуд, Дэвид Кросс, Том Уилкинсон, Орландо Джонс, Кевин Корригэн, Дэвид Хайд Пирс, Лара Флинн Бойл

Описание: Садиться в кресло к парикмахеру Креску без общего наркоза — серьезный риск для любого клиента. Креск пытается избавиться от трупа, а труп постоянно оживает. Добавляя всем неприятностей! Похищены редкие китайские монеты, которые стоят целое состояние. Незадачливый парикмахер, в чьи руки они случайно попали, не против начать новую жизнь. Поэтому замыслу могут помешать: несовершеннолетний киллер, женщина-полицейский, в которую, вдобавок, подозреваемый успевает влюбиться, миллиардер, санитарка-трансвестит, скаут-переросток и бывшая жена. От них можно ожидать чего угодно, ведь в этой цепочке каждое звено — слабое!

Релиз от:

Продолжительность: 01:38:24
Перевод: Дублированный, профессиональный двухголосый
Субтитры: Английские
Навигация по главам: Есть

Качество: WEB-DL 1080p
Формат: MKV

Видео: MPEG-4 AVC, 6028 Кбит/сек, 1920x800, 23,976 кадра/сек
Аудио #1: AC3, 2 ch, 192 Кбит/сек | Русский, профессиональный (полное дублирование) "Мост-Видео", VHS
Аудио #2: AC3, 2 ch, 192 Кбит/сек | Русский, профессиональный (двухголосый закадровый) НТВ+
Аудио #3: AC3, 6 ch, 384 Кбит/сек | Английский, оригинал
Общее
Уникальный идентификатор : 206919532734138106195497020194784312936 (0x9BAB409E68B29EBB83D3454F85BC7E68)
Полное имя : Недотепы.2000.WEB-DL.1080p.mkv
Формат : Matroska
Версия формата : Version 2
Размер файла : 4,77 Гбайт
Продолжительность : 1 ч. 38 м.
Режим общего битрейта : Переменный
Общий поток : 6934 Кбит/сек
Дата кодирования : UTC 2018-04-04 04:22:26
Программа кодирования : mkvmerge v5.8.0 ('No Sleep / Pillow') built on Sep 2 2012 15:37:04
Библиотека кодирования : libebml v1.2.3 + libmatroska v1.3.0

Видео
Идентификатор : 1
Формат : AVC
Формат/Информация : Advanced Video Codec
Профиль формата : High@L4
Настройки формата : CABAC / 4 Ref Frames
Параметр CABAC формата : Да
Параметр RefFrames формата : 4 кадра
Идентификатор кодека : V_MPEG4/ISO/AVC
Продолжительность : 1 ч. 38 м.
Вид битрейта : Переменный
Битрейт : 6028 Кбит/сек
Максимальный битрейт : 15,0 Мбит/сек
Ширина : 1920 пикселей
Высота : 800 пикселей
Соотношение сторон : 2,40:1
Режим частоты кадров : Постоянный
Частота кадров : 23,976 (24000/1001) кадра/сек
Цветовое пространство : YUV
Субдискретизация насыщенности : 4:2:0
Битовая глубина : 8 бит
Тип развёртки : Прогрессивная
Бит/(Пиксели*Кадры) : 0.164
Размер потока : 4,14 Гбайт (87%)
Библиотека кодирования : x264 core 148 r2623 d5b2374
Настройки программы : cabac=1 / ref=4 / deblock=1:-1:-1 / analyse=0x3:0x133 / me=umh / subme=9 / psy=1 / psy_rd=1.00:0.15 / mixed_ref=1 / me_range=24 / chroma_me=1 / trellis=2 / 8x8dct=1 / cqm=0 / deadzone=21,11 / fast_pskip=1 / chroma_qp_offset=-3 / threads=25 / lookahead_threads=4 / sliced_threads=0 / nr=150 / decimate=1 / interlaced=0 / bluray_compat=0 / constrained_intra=0 / bframes=8 / b_pyramid=2 / b_adapt=2 / b_bias=0 / direct=3 / weightb=1 / open_gop=0 / weightp=2 / keyint=120 / keyint_min=61 / scenecut=0 / intra_refresh=0 / rc_lookahead=120 / rc=crf / mbtree=1 / crf=18.0 / qcomp=0.60 / qpmin=0 / qpmax=69 / qpstep=4 / vbv_maxrate=15000 / vbv_bufsize=31250 / crf_max=0.0 / nal_hrd=vbr / filler=0 / ip_ratio=1.40 / aq=3:1.00
Язык : English
Default : Да
Forced : Нет
Цветовой диапазон : Limited
Основные цвета : BT.709
Характеристики трансфера : BT.709
Коэффициенты матрицы : BT.709

Аудио #1
Идентификатор : 2
Формат : AC-3
Формат/Информация : Audio Coding 3
Идентификатор кодека : A_AC3
Продолжительность : 1 ч. 38 м.
Вид битрейта : Постоянный
Битрейт : 192 Кбит/сек
Каналы : 2 канала
Расположение каналов : Front: L R
Частота : 48,0 КГц
Частота кадров : 31,250 кадров/сек (1536 SPF)
Битовая глубина : 16 бит
Метод сжатия : С потерями
Размер потока : 135 Мбайт (3%)
Заголовок : DUB | Мост-Видео
Язык : Russian
По умолчанию : Да
Принудительно : Нет

Аудио #2
Идентификатор : 3
Формат : AC-3
Формат/Информация : Audio Coding 3
Идентификатор кодека : A_AC3
Продолжительность : 1 ч. 38 м.
Вид битрейта : Постоянный
Битрейт : 192 Кбит/сек
Каналы : 2 канала
Расположение каналов : Front: L R
Частота : 48,0 КГц
Частота кадров : 31,250 кадров/сек (1536 SPF)
Битовая глубина : 16 бит
Метод сжатия : С потерями
Размер потока : 135 Мбайт (3%)
Заголовок : DVO | НТВ+
Язык : Russian
По умолчанию : Нет
Принудительно : Нет

Аудио #3
Идентификатор : 4
Формат : AC-3
Формат/Информация : Audio Coding 3
Идентификатор кодека : A_AC3
Продолжительность : 1 ч. 38 м.
Вид битрейта : Постоянный
Битрейт : 384 Кбит/сек
Каналы : 6 каналов
Расположение каналов : Front: L C R, Side: L R, LFE
Частота : 48,0 КГц
Частота кадров : 31,250 кадров/сек (1536 SPF)
Битовая глубина : 16 бит
Метод сжатия : С потерями
Размер потока : 270 Мбайт (6%)
Заголовок : Original
Язык : English
По умолчанию : Нет
Принудительно : Нет

Текст
Идентификатор : 5
Формат : UTF-8
Идентификатор кодека : S_TEXT/UTF8
Идентификатор кодека/Информация : UTF-8 Plain Text
Заголовок : SDH
Язык : English
По умолчанию : Нет
Принудительно : Нет

Меню
00:00:00.083 : en:Chapter 01
00:02:46.319 : en:Chapter 02
00:06:30.376 : en:Chapter 03
00:09:49.275 : en:Chapter 04
00:13:46.145 : en:Chapter 05
00:18:28.927 : en:Chapter 06
00:22:29.167 : en:Chapter 07
00:28:33.731 : en:Chapter 08
00:32:23.294 : en:Chapter 09
00:36:02.680 : en:Chapter 10
00:41:09.319 : en:Chapter 11
00:43:47.394 : en:Chapter 12
00:47:20.023 : en:Chapter 13
00:51:08.084 : en:Chapter 14
00:54:47.220 : en:Chapter 15
01:01:15.658 : en:Chapter 16
01:07:48.384 : en:Chapter 17
01:11:41.617 : en:Chapter 18
01:16:48.924 : en:Chapter 19
01:20:34.849 : en:Chapter 20
01:25:45.293 : en:Chapter 21
01:28:46.507 : en:Chapter 22
01:32:25.643 : en:Chapter 23
01:34:31.986 : en:Chapter 24
piratbit.org



Скачать Недотепы через торрент https://c.radikal.ru/c06/1907/a2/ea26164ffda9.png Скачать фильм Недотепы через торрент бесплантно в хорошем качестве Описание: Садиться в кресло к парикмахеру Креску без общего наркоза — серьезный риск для любого клиента. Креск пытается избавиться от ... 5 10 1
Торрент: Зарегистрирован [2019-07-14 08:37] · скачан: 21 раз
Статус: √ проверено
Размер: 4.77 GB
Как cкачать? Как скачать Недотепы через торрент | qTorrent

% Раздел Тема Автор DL S | L
Фильмы до 2000 г. [ 1.45 GB ] Недотепы / Chain of Fools [2000 WEB-DLRip Мост-Видео профессиональный НТВ schultz Скачать
1 | 0


>> Регистрируемся здесь <<






Отзывы и комментарии о схеме читаем и пишем здесь: ---> Отзывы и комментарии о схеме

Новые благодарочки в телеграм довольных пользователей:
скриншот   скриншот   скриншот   скриншот   скриншот
    Дорогой пользователь! Огромная просьба, поблагодарите релизера, оцените раздачу и оставьте свои комментарий, если Вы скачали Недотепы через торрент бесплатно! Внесите свою лепту в развитие PiratBit!
    Комментировать посты могут только пользователи прошедшие не сложную регистрацию
    Показать сообщения:    

    Недотепы через торрент
    Скачать бесплатно Недотепы
    Недотепы скачать торрент
    Недотепы смотреть онлайн
    Cкачать фильм Недотепы бесплатно
    Недотепы скачать торрент в хорошем качестве
    Недотепы смотреть онлайн бесплатно в хорошем качестве


    Вы не можете начинать темы
    Вы не можете отвечать на сообщения
    Вы не можете редактировать свои сообщения
    Вы не можете удалять свои сообщения
    Вы не можете голосовать в опросах
    Вы не можете прикреплять файлы к сообщениям
    Вы можете скачивать файлы