новый адрес
Мега распродажа FORZA HORIZON 4 ULTIMATE+ВСЕ DLC+ОНЛАЙН всего за 499р. 349 руб. (супер цена). Внимание количество ограничено!!!

iTunes

1+1

iTunes

мы

iTunes

1

iTunes

Чернобыль

iTunes

Ральф против интернета

Лицензия

ПШазам

Лицензия

Игра престолов

Лицензия

30
pack

ВАЖНО

!!Акция!!

Alien_RageХит недели

RePack

Resident Evil 21

ИГРА 18+

pack

RePack

Metro:Exodus

!!Акция!!

Alien_Rage

RePack

fifa19

RePack

Assassins Creed: Odyssey

RePack

NEED FOR SPEED™ PAYBACK

3 сезон

9 сезон

Бесстыжие 9 сезон

Все сериалы

все сериалы на PB.wtf

RePack

FAR CRY 5
Ребята, катастрофически не хватает 1900р. для оплаты серверов за Октябрь (всвязи с блокировками трафик упал в 3 раза), 1-2р., выручайте.
  

Чёрное лето / Black Summer / Сезон: 1 / Серии: 1-8 из 8 ( Джон Хайамс) [2019, боевик, драма, триллер, ужасы, WEBRip 1080p] MVO [TVShows] piratbit.org

Чёрное лето через торрент piratbit.org

Раздают: 2 [ 0 KB/s ]
Размер: 11.62 GB | Добавлен: 4 мес. 3 д. назад | Торрент скачан:40 раз
Скачать  

14-07-2019 09:38 Чёрное лето Скачать торрент  

Чёрное лето / Black Summer Год выпуска: 2019
Страна: Канада, США, The Asylum, Go2 Digital Media, Alberta Film Projects, Local Hero
Жанр: Боевик, драма, триллер, ужасы
Продолжительность: ~00:44:41
Перевод: Профессиональный (многоголосый закадровый) | TVShows
Субтитры: английские

Режиссёр: Джон Хайамс, Тим Кокс

В ролях: Джейми Кинг, Джастин Чу-Кэри, Келси Флауэр, Гвинит Уолш, Кристин Ли, Мустафа Алабсси, Эрика Хау, Саль Велес мл., Кэш Хилл, Джоэль Гань, Дэвид Нэйсом, Джоэль Джекшоу, Бад Класки

Описание: В центре истории "Чёрного лета" молодая мать, которая в наступившей неразберихе потеряла свою дочь – маленькую и беззащитную девочку, которой без материнской помощи будет трудно выжить. Нечастная женщина в отчаяньи и растерянности. Она напугана и встревожена, она не понимает что ей делать и куда бежать. Однако когда первый ужас прошел, героиня начинает действовать. Она отваживается совершить непредсказуемое по своим последствиям путешествие, лишь бы отыскать своего ребенка. На первых порах она прибилась к группе таких-же беженцев, как и она. Однако вскоре выясняется, что маршрут, по которому они собираются двигаться дальше в надежде на спасение, отличается от той дороги, по которой собирается отправиться героиня в поисках дочери. И теперь матери предстоит альтернатива из трех возможностей:



Качество: WEBRip 1080p
Формат: MKV

Видео: AVC/H.264, 1920x1080 (16:9), ~ 5488 kbps, 23.976 fps
Аудио # Rus: AC3, 48 kHz, 6 ch, 384 kbps
Аудио # Eng: Е-AC3, 48 kHz, 6 ch, 768 kbps


Реклама: отсутствует
General
Unique ID : 27688739670858710815646148657421687718 (0x14D4A843DBE239EEAFA8DE1CAED31BA6)
Complete name : C:\Users\Desktop\Black.Summer.S01.1080p.TVShows\Black.Summer.S01E01.1080p.TVShows.mkv
Format : Matroska
Format version : Version 4 / Version 2
File size : 2.07 GiB
Duration : 44 min 41 s
Overall bit rate mode : Variable
Overall bit rate : 6 643 kb/s
Encoded date : UTC 2019-05-06 09:47:20
Writing application : mkvmerge v33.1.0 ('Primrose') 64-bit
Writing library : libebml v1.3.7 + libmatroska v1.5.0

Video
ID : 1
Format : AVC
Format/Info : Advanced Video Codec
Format profile : Main@L4
Format settings : CABAC / 3 Ref Frames
Format settings, CABAC : Yes
Format settings, ReFrames : 3 frames
Codec ID : V_MPEG4/ISO/AVC
Duration : 44 min 41 s
Bit rate mode : Variable
Bit rate : 5 488 kb/s
Nominal bit rate : 5 800 kb/s
Maximum bit rate : 8 700 kb/s
Width : 1 920 pixels
Height : 1 080 pixels
Display aspect ratio : 16:9
Frame rate mode : Constant
Frame rate : 23.976 (24000/1001) FPS
Color space : YUV
Chroma subsampling : 4:2:0
Bit depth : 8 bits
Scan type : Progressive
Bits/(Pixel*Frame) : 0.110
Stream size : 1.71 GiB (83%)
Writing library : x264 core 148 r2715 7e75228
Encoding settings : cabac=1 / ref=3 / deblock=1:0:0 / analyse=0x1:0x111 / me=umh / subme=10 / psy=1 / psy_rd=1.00:0.00 / mixed_ref=1 / me_range=24 / chroma_me=1 / trellis=2 / 8x8dct=0 / cqm=0 / deadzone=21,11 / fast_pskip=1 / chroma_qp_offset=-2 / threads=8 / lookahead_threads=1 / sliced_threads=0 / nr=0 / decimate=1 / interlaced=0 / bluray_compat=0 / stitchable=1 / constrained_intra=0 / bframes=2 / b_pyramid=0 / b_adapt=2 / b_bias=0 / direct=3 / weightb=1 / open_gop=0 / weightp=2 / keyint=48 / keyint_min=25 / scenecut=0 / intra_refresh=0 / rc_lookahead=48 / rc=2pass / mbtree=1 / bitrate=5800 / ratetol=1.0 / qcomp=0.50 / qpmin=6 / qpmax=51 / qpstep=4 / cplxblur=20.0 / qblur=0.5 / vbv_maxrate=8700 / vbv_bufsize=11600 / nal_hrd=vbr / filler=0 / ip_ratio=1.40 / aq=1:1.00
Default : Yes
Forced : No

Audio #1
ID : 2
Format : AC-3
Format/Info : Audio Coding 3
Codec ID : A_AC3
Duration : 44 min 41 s
Bit rate mode : Constant
Bit rate : 384 kb/s
Channel(s) : 6 channels
Channel positions : Front: L C R, Side: L R, LFE
Sampling rate : 48.0 kHz
Frame rate : 31.250 FPS (1536 SPF)
Bit depth : 16 bits
Compression mode : Lossy
Stream size : 123 MiB (6%)
Title : TVShows
Language : Russian
Service kind : Complete Main
Default : Yes
Forced : Yes

Audio #2
ID : 3
Format : E-AC-3
Format/Info : Enhanced Audio Coding 3
Format profile : E-AC-3+Atmos / E-AC-3
Codec ID : A_EAC3
Duration : 44 min 41 s
Bit rate mode : Constant
Bit rate : 768 kb/s
Channel(s) : 15 objects / 6 channels
Channel positions : 15 objects / Front: L C R, Side: L R, LFE
Sampling rate : 48.0 kHz
Frame rate : 187.500 FPS (256 SPF)
Compression mode : Lossy
Stream size : 245 MiB (12%)
Title : Original
Language : English
Service kind : Complete Main
Default : No
Forced : No

Text
ID : 4
Format : UTF-8
Codec ID : S_TEXT/UTF8
Codec ID/Info : UTF-8 Plain Text
Duration : 40 min 41 s
Bit rate : 40 b/s
Count of elements : 506
Stream size : 12.0 KiB (0%)
Title : English
Language : English
Default : No
Forced : No
Внимание! Раздача ведётся путём добавления новых серий; при каждом добавлении создаётся новый торрент. Чтобы начать докачку новой серии, пользователям необходимо сделать следующее:
(1) остановить скачивание,
(2) удалить старый торрент у себя из клиента (старые серии удалять не надо),
(3) скачать новый торрент и запустить его у себя в клиенте вместо старого, при этом указать клиенту путь в старую папку куда и должно происходить скачивание новых серий.

Ваш клиент при этом должен произвести хеширование (проверку) старой папки (если не производит сам - помогите ему сделать это), и будет докачивать только те серии которых у вас ещё нет. Старые серии при этом не удаляются, а продолжают раздаваться!

Eсли вы уже удалили старые серии, то предотвратить повторную закачку старых серий можно, отжав галочку в соответствующих местах при запуске нового торрента. По возможности, желательно не удалять старые серии как можно дольше чтобы релизёр не столько продолжал раздавать старые серии, а смог сконцентрироваться на новых.
piratbit.org



Скачать Чёрное лето через торрент http://img16.lostpic.net/2019/04/11/dd99c84bfdaa5c8333409f6d04bcd4ed.png Скачать фильм Чёрное лето через торрент бесплантно в хорошем качестве Описание: В центре истории "Чёрного лета" молодая мать, которая в наступившей неразберихе потеряла свою дочь – маленькую и беззащитную ... 10 10 4
Торрент: Зарегистрирован [2019-07-14 09:38] · скачан: 40 раз
Статус: √ проверено
Размер: 11.62 GB
Как cкачать? Как скачать Чёрное лето через торрент | qTorrent

% Раздел Тема Автор DL S | L
Зарубежные сериалы [ 38.31 GB ] Чёрное лето / Black Summer / Сезон: 1 / Серии: 1-8 из 8 [2019 UHD WEB-DL 2160p] MVO [SDI Media] bober100 Скачать
1 | 0
Зарубежные сериалы [ 12.13 GB ] Чёрное лето / Black Summer / Сезон: 1 / Серии: 1-8 из 8 [2019 WEB-DL 1080p] MVO [SDI Media] bober100 Скачать
1 | 0
Зарубежные сериалы [ 10.86 GB ] Чёрное лето / Black Summer / Сезон: 1 / Серии: 1-8 из 8 [2019 WEB-DL 1080p] MVO [Netflix] bober100 Скачать
5 | 0


>> Регистрируемся здесь <<






Отзывы и комментарии о схеме читаем и пишем здесь: ---> Отзывы и комментарии о схеме

Новые благодарочки в телеграм довольных пользователей:
скриншот   скриншот   скриншот   скриншот   скриншот
    Дорогой пользователь! Огромная просьба, поблагодарите релизера, оцените раздачу и оставьте свои комментарий, если Вы скачали Чёрное лето через торрент бесплатно! Внесите свою лепту в развитие PiratBit!
    Комментировать посты могут только пользователи прошедшие не сложную регистрацию
    Показать сообщения:    

    Чёрное лето через торрент
    Скачать бесплатно Чёрное лето
    Чёрное лето скачать торрент
    Чёрное лето смотреть онлайн
    Cкачать фильм Чёрное лето бесплатно
    Чёрное лето скачать торрент в хорошем качестве
    Чёрное лето смотреть онлайн бесплатно в хорошем качестве


    Вы не можете начинать темы
    Вы не можете отвечать на сообщения
    Вы не можете редактировать свои сообщения
    Вы не можете удалять свои сообщения
    Вы не можете голосовать в опросах
    Вы не можете прикреплять файлы к сообщениям
    Вы можете скачивать файлы