новый адрес
Мега распродажа FORZA HORIZON 4 ULTIMATE+ВСЕ DLC+ОНЛАЙН всего за 499р. 349 руб. (супер цена). Внимание количество ограничено!!!

iTunes

1+1

iTunes

мы

iTunes

1

iTunes

Чернобыль

iTunes

Ральф против интернета

Лицензия

ПШазам

Лицензия

Игра престолов

Лицензия

30
pack

ВАЖНО

!!Акция!!

Alien_RageХит недели

RePack

Resident Evil 21

ИГРА 18+

pack

RePack

Metro:Exodus

!!Акция!!

Alien_Rage

RePack

fifa19

RePack

Assassins Creed: Odyssey

RePack

NEED FOR SPEED™ PAYBACK

3 сезон

9 сезон

Бесстыжие 9 сезон

Все сериалы

все сериалы на PB.wtf

RePack

FAR CRY 5
Ребята, катастрофически не хватает 1900р. для оплаты серверов за Октябрь (всвязи с блокировками трафик упал в 3 раза), 1-2р., выручайте.
  

Алита: Боевой ангел / Alita: Battle Angel (Роберт Родригес) [2019 г., Фантастика, боевик, триллер, мелодрама, приключения, BDRip-AVC, Дубляж Лицензия] от ExKinoRay piratbit.org

Алита: Боевой ангел через торрент piratbit.org

Раздают: 18 [ 27 KB/s ]
Размер: 3.15 GB | Добавлен: 4 мес. 3 д. назад | Торрент скачан:366 раз
Скачать  

14-07-2019 12:19 Алита: Боевой ангел Скачать торрент  

Алита: Боевой ангел / Alita: Battle Angel
Год выпуска: 2019
Страна: Канада, Аргентина, США
Жанр: Фантастика, боевик, триллер, мелодрама, приключения
Продолжительность: 02:01:57
Перевод: Дубляж Лицензия
Субтитры: Русские (Forced, Full - License), английские (Full, SDH)

Режиссер: Роберт Родригес

Бюджет: $170 000 000
Премьера в мире: 5 февраля 2019

rating

В ролях: Роза Салазар, Кристоф Вальц, Дженнифер Коннелли, Махершала Али, Эд Скрейн, Джеки Эрл Хейли, Кин Джонсон, Хорхе Лендеборг мл., Лана Кондор, Идара Виктор

Описание: Действие фильма происходит через 300 лет после Великой войны в XXVI веке. Доктор Идо находит останки женщины-киборга. После починки киборг ничего не помнит, но обнаруживает, что в состоянии пользоваться боевыми приемами киборгов. Начинаются поиски утерянных воспоминаний.

Доп. информация: Субтитры: Русские (Forced, Full - License), английские (Full, SDH)

Качество: BDRip-AVC
Формат: MKV
Видео кодек: H.264
Аудио кодек: AC3
Видео: 2800 Кбит/с, 1024x428, 23,976 кадра/сек
Аудио#1: Русский (AC3, 6 ch, 448 Кбит/с, 48 КГц)
Аудио#2: Английский (AC3, 6 ch, 448 Кбит/с, 48 КГц)
Релиз от:
x264 [info]: profile High, level 4.1
x264 [info]: frame I:1667 Avg QP:14.61 size: 88542
x264 [info]: frame P:44864 Avg QP:17.58 size: 29274
x264 [info]: frame B:128909 Avg QP:18.98 size: 8532
-----
Общее
Уникальный идентификатор : 247493501220574413499059772669413430310 (0xBA3183B68C003EF1B23BEA9C25B61426)
Полное имя : F:\ExKinoRayRips\Alita.Battle.Angel.2019.BDRip-AVC.ExKinoRay.mkv
Формат : Matroska
Версия формата : Version 2
Размер файла : 3,15 Гбайт
Продолжительность : 2 ч. 1 м.
Общий поток : 3698 Кбит/сек
Дата кодирования : UTC 2019-07-14 10:43:15
Программа кодирования : mkvmerge v7.8.0 ('River Man') 32bit built on Apr 3 2015 12:11:22
Библиотека кодирования : libebml v1.3.1 + libmatroska v1.4.2

Видео
Идентификатор : 1
Формат : AVC
Формат/Информация : Advanced Video Codec
Профиль формата : High@L4.1
Настройки формата : CABAC / 12 Ref Frames
Параметр CABAC формата : Да
Параметр RefFrames формата : 12 кадров
Идентификатор кодека : V_MPEG4/ISO/AVC
Продолжительность : 2 ч. 1 м.
Битрейт : 2800 Кбит/сек
Ширина : 1024 пикселя
Высота : 428 пикселей
Соотношение сторон : 2,40:1
Режим частоты кадров : Постоянный
Частота кадров : 23,976 (24000/1001) кадра/сек
Цветовое пространство : YUV
Субдискретизация насыщенности : 4:2:0
Битовая глубина : 8 бит
Тип развёртки : Прогрессивная
Бит/(Пиксели*Кадры) : 0.266
Размер потока : 2,32 Гбайт (74%)
Библиотека кодирования : x264 core 152 r2851 ba24899
Настройки программы : cabac=1 / ref=12 / deblock=1:-3:-2 / analyse=0x3:0x113 / me=umh / subme=10 / psy=1 / psy_rd=1.00:0.10 / mixed_ref=1 / me_range=32 / chroma_me=1 / trellis=2 / 8x8dct=1 / cqm=0 / deadzone=21,11 / fast_pskip=0 / chroma_qp_offset=-3 / threads=6 / lookahead_threads=1 / sliced_threads=0 / nr=0 / decimate=0 / interlaced=0 / bluray_compat=0 / constrained_intra=0 / bframes=12 / b_pyramid=2 / b_adapt=2 / b_bias=0 / direct=3 / weightb=1 / open_gop=0 / weightp=2 / keyint=240 / keyint_min=23 / scenecut=40 / intra_refresh=0 / rc=2pass / mbtree=0 / bitrate=2800 / ratetol=1.0 / qcomp=0.60 / qpmin=0 / qpmax=69 / qpstep=4 / cplxblur=20.0 / qblur=0.5 / ip_ratio=1.40 / pb_ratio=1.30 / aq=3:1.00
Язык : English
Default : Да
Forced : Нет
Цветовой диапазон : Limited
Основные цвета : BT.709
Характеристики трансфера : BT.709
Коэффициенты матрицы : BT.709

Аудио #1
Идентификатор : 2
Формат : AC-3
Формат/Информация : Audio Coding 3
Коммерческое название : Dolby Digital
Идентификатор кодека : A_AC3
Продолжительность : 2 ч. 1 м.
Вид битрейта : Постоянный
Битрейт : 448 Кбит/сек
Каналы : 6 каналов
Channel layout : L R C LFE Ls Rs
Частота : 48,0 КГц
Частота кадров : 31,250 кадров/сек (1536 SPF)
Битовая глубина : 16 бит
Метод сжатия : С потерями
Размер потока : 391 Мбайт (12%)
Заголовок : Лицензия
Язык : Russian
ServiceKind/String : Complete Main
Default : Да
Forced : Нет

Аудио #2
Идентификатор : 3
Формат : AC-3
Формат/Информация : Audio Coding 3
Коммерческое название : Dolby Digital
Идентификатор кодека : A_AC3
Продолжительность : 2 ч. 1 м.
Вид битрейта : Постоянный
Битрейт : 448 Кбит/сек
Каналы : 6 каналов
Channel layout : L R C LFE Ls Rs
Частота : 48,0 КГц
Частота кадров : 31,250 кадров/сек (1536 SPF)
Битовая глубина : 16 бит
Метод сжатия : С потерями
Размер потока : 391 Мбайт (12%)
Язык : English
ServiceKind/String : Complete Main
Default : Нет
Forced : Нет

Текст #1
Идентификатор : 4
Формат : UTF-8
Идентификатор кодека : S_TEXT/UTF8
Идентификатор кодека/Информация : UTF-8 Plain Text
Заголовок : Forced
Язык : Russian
Default : Нет
Forced : Нет

Текст #2
Идентификатор : 5
Формат : UTF-8
Идентификатор кодека : S_TEXT/UTF8
Идентификатор кодека/Информация : UTF-8 Plain Text
Заголовок : Full [License]
Язык : Russian
Default : Нет
Forced : Нет

Текст #3
Идентификатор : 6
Формат : UTF-8
Идентификатор кодека : S_TEXT/UTF8
Идентификатор кодека/Информация : UTF-8 Plain Text
Заголовок : Full
Язык : English
Default : Нет
Forced : Нет

Текст #4
Идентификатор : 7
Формат : UTF-8
Идентификатор кодека : S_TEXT/UTF8
Идентификатор кодека/Информация : UTF-8 Plain Text
Заголовок : SDH
Язык : English
Default : Нет
Forced : Нет

Меню
00:00:00.000 : en:Chapter 01
00:03:28.625 : en:Chapter 02
00:07:51.680 : en:Chapter 03
00:10:07.982 : en:Chapter 04
00:13:06.703 : en:Chapter 05
00:15:06.739 : en:Chapter 06
00:18:04.542 : en:Chapter 07
00:22:58.711 : en:Chapter 08
00:25:35.325 : en:Chapter 09
00:31:40.899 : en:Chapter 10
00:33:29.216 : en:Chapter 11
00:36:32.816 : en:Chapter 12
00:38:30.892 : en:Chapter 13
00:42:05.481 : en:Chapter 14
00:45:58.214 : en:Chapter 15
00:48:31.450 : en:Chapter 16
00:52:57.007 : en:Chapter 17
00:55:14.353 : en:Chapter 18
01:00:39.761 : en:Chapter 19
01:02:56.564 : en:Chapter 20
01:05:16.788 : en:Chapter 21
01:10:50.496 : en:Chapter 22
01:13:37.288 : en:Chapter 23
01:16:35.216 : en:Chapter 24
01:18:52.227 : en:Chapter 25
01:22:48.297 : en:Chapter 26
01:24:55.340 : en:Chapter 27
01:28:25.217 : en:Chapter 28
01:33:18.551 : en:Chapter 29
01:36:08.763 : en:Chapter 30
01:41:54.692 : en:Chapter 31
01:45:23.442 : en:Chapter 32
01:48:16.490 : en:Chapter 33
01:51:43.655 : en:Chapter 34
01:54:43.668 : en:Chapter 35
01:56:51.504 : en:Chapter 36

piratbit.org



Скачать Алита: Боевой ангел через торрент https://c.radikal.ru/c27/1907/7f/75c2bd9b9956.jpg Скачать фильм Алита: Боевой ангел через торрент бесплантно в хорошем качестве Описание: Действие фильма происходит через 300 лет после Великой войны в XXVI веке. Доктор Идо находит останки женщины-киборга. После ... 10 10 8
Info! Золотая раздача, скачанное не засчитывается.
Торрент: Зарегистрирован [2019-07-14 12:19] · скачан: 366 раз
Статус: √ проверено
Размер: 3.15 GB
Как cкачать? Как скачать Алита: Боевой ангел через торрент | qTorrent


>> Регистрируемся здесь <<






Отзывы и комментарии о схеме читаем и пишем здесь: ---> Отзывы и комментарии о схеме

Новые благодарочки в телеграм довольных пользователей:
скриншот   скриншот   скриншот   скриншот   скриншот

14-07-2019 13:19 Алита: Боевой ангел Скачать торрент  

Топик был перенесен из форума Оформление раздач (Кино, Видео и ТВ) в форум Фильмы 2019 [DVDrip, WEB-DLRip, HDrip] (DUB, MVO)


bober100piratbit.org



    Дорогой пользователь! Огромная просьба, поблагодарите релизера, оцените раздачу и оставьте свои комментарий, если Вы скачали Алита: Боевой ангел через торрент бесплатно! Внесите свою лепту в развитие PiratBit!
    Комментировать посты могут только пользователи прошедшие не сложную регистрацию
    Показать сообщения:    

    Алита: Боевой ангел через торрент
    Скачать бесплатно Алита: Боевой ангел
    Алита: Боевой ангел скачать торрент
    Алита: Боевой ангел смотреть онлайн
    Cкачать фильм Алита: Боевой ангел бесплатно
    Алита: Боевой ангел скачать торрент в хорошем качестве
    Алита: Боевой ангел смотреть онлайн бесплатно в хорошем качестве


    Вы не можете начинать темы
    Вы не можете отвечать на сообщения
    Вы не можете редактировать свои сообщения
    Вы не можете удалять свои сообщения
    Вы не можете голосовать в опросах
    Вы не можете прикреплять файлы к сообщениям
    Вы можете скачивать файлы