Достать ножи: Стеклянная луковица

MVO

Добыча

Дубляж

Уэнсдэй

1 сезон

Тор

Дубляж

13 клиническая

1 сезон

Жестокая ночь

MVO

Одни из нас

1 сезон

Deluxe

pack

Рекомендуем

30

Пиратка

ВАЖНО

ВАЖНО

Ghostwire

Пиратка

jed

RePack

nioh2

RePack

RDR2

RePack

NEED FOR SPEED™ PAYBACK

RePack

скачать торрент

Кинопоиск HD

Острые козырьки 6 сезон

6 сезон

FAR CRY 6

RePack

скачать торрент

Лицензия

скачать торрент

MVO

1

1 сезон

скачать торрент

1 сезон

скачать торрент

Лицензия

  

28 панфиловцев (Ким Дружинин, Андрей Шальопа) [2016 г., Военный, драма, UHD WEB-DL 2160p] [Лицензия]

28 панфиловцев через торрент piratbit.org

Размер: 21.68 GB | Добавлен: 3 года 6 мес. назад | Торрент скачан:68 раз
Смотреть онлайн | Скачать | Поддержите нас   

16-07-2019 12:22 28 панфиловцев Скачать торрент  

28 панфиловцев

Год выпуска: 2016
Страна: Россия
Жанр: Военный, драма
Продолжительность: 02:00:38
Перевод: Не требуется
Cубтитры: нет

Режиссер: Ким Дружинин, Андрей Шальопа
В ролях:
Александр Устюгов, Яков Кучеревский, Азамат Нигманов, Олег Фёдоров (I), Алексей Морозов, Антон Кузнецов, Алексей Лонгин, Максим Белбородов, Дмитрий Мурашев, Виталий Коваленко
Описание:
Осенью 1941-го года немецкие части, стоявшие возле Волоколамска, отделяло от Москвы каких-нибудь два часа по шоссе. Однако, на этом шоссе стояла 316-я стрелковая дивизия под командованием генерала И. В. Панфилова. Этот военачальник обладал настолько высоким авторитетом среди личного состава, что бойцы дивизии сами называли себя панфиловцами. А дивизию — панфиловской.

rating
Качество: UHD WEB-DL 2160p
Формат: MKV
Видео: HDR, HEVC, 3840:2160 (16:9), 20,6 Mbps, 24.000 fps
Аудио 1: DTS-HD MA, 6 ch, 48 kHz, 4153 kbps, 24-bit (DTS Core 6 ch, 48 kHz, 1509 kbps) Русский
Аудио 2: AC3, 6 ch, 48 kHz, 640 kbps Русский
Аудио 3: AAC, 2 ch, 44,1 kHz, 320 kbps Русский
Навигация по главам: Есть

Общее
Уникальный идентификатор : 205760615196503540538787161005602214617 (0x9ACC0D929A9B9D0FFE0A1A7BB09D92D9)
Полное имя : F:\RELEASE\Panfilov's.28.Men.2016.2160p.WEB-DL.HDR.HEVC.EniaHD.mkv
Формат : Matroska
Версия формата : Version 4
Размер файла : 21,7 Гбайт
Продолжительность : 2 ч. 0 м.
Режим общего битрейта : Переменный
Общий поток : 25,7 Мбит/сек
Название фильма : 28 панфиловцев (2016)
Дата кодирования : UTC 2019-07-15 08:57:15
Программа кодирования : mkvmerge v34.0.0 ('Sight and Seen') 64-bit
Библиотека кодирования : libebml v1.3.7 + libmatroska v1.5.0
Attachments : poster.jpg

Видео
Идентификатор : 1
Формат : HEVC
Формат/Информация : High Efficiency Video Coding
Профиль формата : Main 10@L5@Main
Идентификатор кодека : V_MPEGH/ISO/HEVC
Продолжительность : 2 ч. 0 м.
Битрейт : 20,6 Мбит/сек
Ширина : 3840 пикселей
Высота : 2160 пикселей
Соотношение сторон : 16:9
Режим частоты кадров : Постоянный
Частота кадров : 24,000 кадра/сек
Цветовое пространство : YUV
Субдискретизация насыщенности : 4:2:0
Битовая глубина : 10 бит
Бит/(Пиксели*Кадры) : 0.104
Размер потока : 17,4 Гбайт (80%)
Заголовок : Panfilov's.28.Men.2016.2160p.WEB-DL.HDR.HEVC.EniaHD
Язык : Russian
Default : Да
Forced : Нет
Цветовой диапазон : Full
Основные цвета : BT.2020
Характеристики трансфера : PQ
Коэффициенты матрицы : BT.2020 non-constant

Аудио #1
Идентификатор : 2
Формат : DTS XLL
Формат/Информация : Digital Theater Systems
Коммерческое название : DTS-HD Master Audio
Идентификатор кодека : A_DTS
Продолжительность : 2 ч. 0 м.
Вид битрейта : Переменный
Битрейт : 4153 Кбит/сек
Каналы : 6 каналов
ChannelLayout : C L R Ls Rs LFE
Частота : 48,0 КГц
Частота кадров : 93,750 кадра/сек (512 SPF)
Битовая глубина : 24 бит
Метод сжатия : Без потерь
Размер потока : 3,50 Гбайт (16%)
Заголовок : DTS-HD MA @ 4153 kbps - Original
Язык : Russian
Default : Да
Forced : Нет

Аудио #2
Идентификатор : 3
Формат : AC-3
Формат/Информация : Audio Coding 3
Коммерческое название : Dolby Digital
Идентификатор кодека : A_AC3
Продолжительность : 2 ч. 0 м.
Вид битрейта : Постоянный
Битрейт : 640 Кбит/сек
Каналы : 6 каналов
ChannelLayout : L R C LFE Ls Rs
Частота : 48,0 КГц
Частота кадров : 31,250 кадров/сек (1536 SPF)
Битовая глубина : 16 бит
Метод сжатия : С потерями
Размер потока : 552 Мбайт (2%)
Заголовок : AC3 5.1 @ 640 kbps - Original
Язык : Russian
ServiceKind/String : Complete Main
Default : Нет
Forced : Нет

Аудио #3
Идентификатор : 4
Формат : AAC LC
Формат/Информация : Advanced Audio Codec Low Complexity
Идентификатор кодека : A_AAC-2
Продолжительность : 2 ч. 0 м.
Битрейт : 320 Кбит/сек
Каналы : 2 канала
ChannelLayout : L R
Частота : 44,1 КГц
Частота кадров : 43,066 кадра/сек (1024 SPF)
Метод сжатия : С потерями
Размер потока : 276 Мбайт (1%)
Заголовок : AAC 2.0 @ 320 kbps - Original
Язык : Russian
Default : Нет
Forced : Нет

Меню
00:00:00.028 : ru:Chapter 01
00:01:24.403 : ru:Chapter 02
00:11:59.236 : ru:Chapter 03
00:26:15.819 : ru:Chapter 04
00:38:43.653 : ru:Chapter 05
00:55:16.444 : ru:Chapter 06
01:12:21.361 : ru:Chapter 07
01:25:35.528 : ru:Chapter 08
01:38:52.361 : ru:Chapter 09



Скачать 28 панфиловцев через торрент https://d.radikal.ru/d04/1907/5e/efa2547c06f9.png Скачать, смотреть онлайн 28 панфиловцев бесплантно в хорошем качестве Описание: Осенью 1941-го года немецкие части, стоявшие возле Волоколамска, отделяло от Москвы каких-нибудь два часа по шоссе. Однако, на ... 7.8 10 4
Торрент: Зарегистрирован [2019-07-16 12:22] · скачан: 68 раз
Статус: √ проверено
Размер: 21.68 GB
Как cкачать? Как скачать 28 панфиловцев через торрент | UTorrent

% Раздел Тема Автор DL S | L
Наши фильмы 2016 [ 2.18 GB ] 28 панфиловцев | | BDRip-AVC от AVP Studio AVP Studio Скачать
1 | 0
Наши фильмы 2017 [ 6.49 GB ] 28 панфиловцев | Лицензия | 720p, Лицензия Хорват Скачать
1 | 0
Наши фильмы 2016 [ 1.46 GB ] 28 панфиловцев | | BDRip от AVP Studio AVP Studio Скачать
1 | 0
Наши фильмы (Blu-ray, BD-Remux, HDDVD) [ 20 GB ] 28 панфиловцев | | BD Remux, Оригинальный Бумер Скачать
1 | 0
Наши фильмы (HD, WEB-DL 720p, 1080p) [ 4.18 GB ] 28 панфиловцев | Лицензия | 1080p killermax2013 Скачать
1 | 0
Наши фильмы (HD, WEB-DL 720p, 1080p) [ 4.37 GB ] 28 панфиловцев | Лицензия | 720p от potroks potroks Скачать
2 | 0
Наши фильмы (Blu-ray, BD-Remux, HDDVD) [ 36.18 GB ] 28 панфиловцев | Лицензия | Лицензия Russian Mafia Скачать
1 | 0

28-11-2019 20:33  


Отключить вcю реклaмy на сайте, в т.ч. и в плеере онлайн просмотра!

    Дорогой пользователь! Огромная просьба, поблагодарите релизера, оцените раздачу и оставьте свои комментарий, если Вы скачали 28 панфиловцев через торрент бесплатно!!
    Комментировать посты могут только пользователи прошедшие не сложную регистрацию
    Показать сообщения:    


    28 панфиловцев через торрент
    Скачать бесплатно 28 панфиловцев
    28 панфиловцев скачать торрент
    28 панфиловцев смотреть онлайн
    Cкачать фильм 28 панфиловцев бесплатно
    28 панфиловцев скачать торрент в хорошем качестве
    28 панфиловцев смотреть онлайн бесплатно в хорошем качестве
    Вы не можете начинать темы
    Вы не можете отвечать на сообщения
    Вы не можете редактировать свои сообщения
    Вы не можете удалять свои сообщения
    Вы не можете голосовать в опросах
    Вы не можете прикреплять файлы к сообщениям
    Вы можете скачивать файлы
    28 панфиловцев [2016 г., Военный, драма, UHD WEB-DL 2160p] [Лицензия] смотреть онлайн, скачать торрент picoco.icu