Достать ножи: Стеклянная луковица

MVO

Добыча

Дубляж

Уэнсдэй

1 сезон

Тор

Дубляж

13 клиническая

1 сезон

Жестокая ночь

MVO

Одни из нас

1 сезон

Deluxe

pack

Рекомендуем

30

Пиратка

ВАЖНО

ВАЖНО

Ghostwire

Пиратка

jed

RePack

nioh2

RePack

RDR2

RePack

NEED FOR SPEED™ PAYBACK

RePack

скачать торрент

Кинопоиск HD

Острые козырьки 6 сезон

6 сезон

FAR CRY 6

RePack

скачать торрент

Лицензия

скачать торрент

MVO

1

1 сезон

скачать торрент

1 сезон

скачать торрент

Лицензия

  

Пришелец (Александр Куликов) [2018, приключения, фантастика, драма, UHD WEB-DL 2160p] [SDR] [iTunes]

Пришелец через торрент piratbit.org

Размер: 10.43 GB | Добавлен: 3 года 6 мес. назад | Торрент скачан:69 раз
Смотреть онлайн | Скачать | Поддержите нас   

17-07-2019 02:56 Пришелец Скачать торрент  

Пришелец

Год выпуска: 2018
Страна: Россия
Жанр: приключения, фантастика, драма
Продолжительность: 01:30:59
Перевод: Не требуется
Субтитры: нет
Режиссер: Александр Куликов
В ролях:

Андрей Смоляков (Александр Ковалев), Юрий Цурило (министр), Григорий Сиятвинда (Гриша Стар, ведущий шоу), Максим Виторган (Петр Новиков), Александр Куликов (Александр Чапаев), Анна Банщикова (Анна), Руслан Устинов (помощник Рэндольфа), Прадьюмна Чаттерджи (сотрудник ЦУП), Юнчен Жуань (сотрудник ЦУП), Игорь Огурцов (сотрудник ЦУП), Максим Сураев (заместитель командира экипажа), Алексей Огурцов (начальник следственного комитета)
Описание:
В результате цепи трагических случайностей на далекой планете в одиночестве оказывается космонавт. Его жизнь находится в постоянной опасности. Нечто необъяснимое, вступившее с ним в контакт, навсегда изменит его. С этой минуты он станет потерянным и для себя и для людей.
Рейтинг:

Качество: UHD WEB-DL 2160p
Формат: MKV
Видео: HEVC Video, 16:9, 3840x2160, 24 fps, 15.7 Mbps
Аудио №1: русский / AC3, 6 ch, 384 kbps, 16 bits, 48.0 KHz - iTunes
Аудио №2: русский / AAC, 2 ch, 320 kbps, 16 bits, 44.1 KHz
Навигация по главам: есть

Общее
Уникальный идентификатор : 15191108326274455290247721921079779806 (0xB6DB37772FF1A592F53291764B1A1DE)
Полное имя : F:\RELEASE\Forsaken.2018.2160p.WEB-DL.SDR.HEVC.EniaHD.mkv
Формат : Matroska
Версия формата : Version 4
Размер файла : 10,4 Гбайт
Продолжительность : 1 ч. 30 м.
Общий поток : 16,4 Мбит/сек
Название фильма : Пришелец (2018)
Дата кодирования : UTC 2019-07-16 18:02:33
Программа кодирования : mkvmerge v34.0.0 ('Sight and Seen') 64-bit
Библиотека кодирования : libebml v1.3.7 + libmatroska v1.5.0
Обложка : Yes
Attachments : cover.jpg

Видео
Идентификатор : 1
Формат : HEVC
Формат/Информация : High Efficiency Video Coding
Профиль формата : Main@L5@Main
Идентификатор кодека : V_MPEGH/ISO/HEVC
Продолжительность : 1 ч. 30 м.
Битрейт : 15,7 Мбит/сек
Ширина : 3840 пикселей
Высота : 2160 пикселей
Соотношение сторон : 16:9
Режим частоты кадров : Постоянный
Частота кадров : 24,000 кадра/сек
Цветовое пространство : YUV
Субдискретизация насыщенности : 4:2:0
Битовая глубина : 8 бит
Бит/(Пиксели*Кадры) : 0.079
Размер потока : 9,98 Гбайт (96%)
Заголовок : Forsaken.2018.2160p.WEB-DL.SDR.HEVC.EniaHD
Язык : Russian
Default : Да
Forced : Нет

Аудио #1
Идентификатор : 2
Формат : AC-3
Формат/Информация : Audio Coding 3
Коммерческое название : Dolby Digital
Идентификатор кодека : A_AC3
Продолжительность : 1 ч. 30 м.
Вид битрейта : Постоянный
Битрейт : 384 Кбит/сек
Каналы : 6 каналов
ChannelLayout : L R C LFE Ls Rs
Частота : 48,0 КГц
Частота кадров : 31,250 кадров/сек (1536 SPF)
Битовая глубина : 16 бит
Метод сжатия : С потерями
Размер потока : 249 Мбайт (2%)
Заголовок : AC3 5.1 @ 384 kbps - Original
Язык : Russian
ServiceKind/String : Complete Main
Default : Да
Forced : Нет

Аудио #2
Идентификатор : 3
Формат : AAC LC
Формат/Информация : Advanced Audio Codec Low Complexity
Идентификатор кодека : A_AAC-2
Продолжительность : 1 ч. 30 м.
Битрейт : 320 Кбит/сек
Каналы : 2 канала
ChannelLayout : L R
Частота : 44,1 КГц
Частота кадров : 43,066 кадра/сек (1024 SPF)
Метод сжатия : С потерями
Размер потока : 208 Мбайт (2%)
Заголовок : AAC 2.0 @ 320 kbps - Original
Язык : Russian
Default : Нет
Forced : Нет

Меню
00:00:00.000 : en:1
00:07:30.549 : en:2
00:15:43.056 : en:3
00:25:21.478 : en:4
00:36:01.838 : en:5
00:47:36.143 : en:6
00:57:22.557 : en:7
01:05:36.063 : en:8
01:14:38.521 : en:9
01:26:09.830 : en:10



Скачать Пришелец через торрент https://a.radikal.ru/a24/1907/d4/1ef420b41fe7.png Скачать, смотреть онлайн Пришелец бесплантно в хорошем качестве Описание: В результате цепи трагических случайностей на далекой планете в одиночестве оказывается космонавт. Его жизнь находится в ... 10 10 5
Торрент: Зарегистрирован [2019-07-17 02:56] · скачан: 69 раз
Статус: √ проверено
Размер: 10.43 GB
Как cкачать? Как скачать Пришелец через торрент | UTorrent

% Раздел Тема Автор DL S | L
Наши фильмы (Blu-ray, BD-Remux, HDDVD) [ 30.21 GB ] Пришелец | Лицензия | 1080p bober100 Скачать
1 | 0
Наши фильмы 2018-2019 [ 1.42 GB ] Пришелец | Лицензия | BDRip-AVC bober100 Скачать
1 | 0
Наши фильмы 2018-2019 [ 1.46 GB ] Пришелец | Лицензия Blu-Ray GER | BDRip bober100 Скачать
1 | 0
Наши фильмы 2018-2019 [ 745 MB ] Пришелец | iTunes | DLRip bober100 Скачать
1 | 0
Наши фильмы (HD, WEB-DL 720p, 1080p) [ 3.12 GB ] Пришелец | iTunes | 1080p bober100 Скачать
1 | 0

28-11-2019 20:33  


Отключить вcю реклaмy на сайте, в т.ч. и в плеере онлайн просмотра!

    Дорогой пользователь! Огромная просьба, поблагодарите релизера, оцените раздачу и оставьте свои комментарий, если Вы скачали Пришелец через торрент бесплатно!!
    Комментировать посты могут только пользователи прошедшие не сложную регистрацию
    Показать сообщения:    


    Пришелец через торрент
    Скачать бесплатно Пришелец
    Пришелец скачать торрент
    Пришелец смотреть онлайн
    Cкачать фильм Пришелец бесплатно
    Пришелец скачать торрент в хорошем качестве
    Пришелец смотреть онлайн бесплатно в хорошем качестве
    Вы не можете начинать темы
    Вы не можете отвечать на сообщения
    Вы не можете редактировать свои сообщения
    Вы не можете удалять свои сообщения
    Вы не можете голосовать в опросах
    Вы не можете прикреплять файлы к сообщениям
    Вы можете скачивать файлы
    Пришелец [2018, приключения, фантастика, драма, UHD WEB-DL 2160p] [SDR] [iTunes] смотреть онлайн, скачать торрент picoco.icu