MEGA SALE -50% FORZA HORIZON 4 ULTIMATE+ВСЕ DLC+ОНЛАЙН всего за 599р. 299 руб. (супер цена). Внимание количество ограничено!!!

iTunes

1+1

iTunes

мы

iTunes

1

iTunes

Чернобыль

iTunes

Ральф против интернета

Лицензия

ПШазам

Лицензия

Игра престолов

Лицензия

30
pack

ВАЖНО

!!Акция!!

Alien_RageХит недели

RePack

Resident Evil 21

ИГРА 18+

pack

RePack

Metro:Exodus

!!Акция!!

Alien_Rage

RePack

fifa19

RePack

Assassins Creed: Odyssey

RePack

NEED FOR SPEED™ PAYBACK

3 сезон

9 сезон

Бесстыжие 9 сезон

Все сериалы

все сериалы на PB.wtf

RePack

FAR CRY 5
Ребята, катастрофически не хватает 7730р. для оплаты серверов за АВГУСТ (всвязи с блокировками трафик упал в 3 раза), 1-2р., выручайте.
  

Пандора / Pandora / Сезон: 1 / Серии: 1-10 из 13 (Стивен Хьюз, Бретт Симмонс, Кристиан Госсетт) [2019, фантастика, боевик, драма, WEBRip] DVO [Kerob] piratbit.org

Пандора через торрент piratbit.org

Размер: 3.96 GB | Добавлен: 21 ч. назад | Торрент скачан:1 раз
Скачать  

17-07-2019 10:03 Пандора Скачать торрент  

Пандора / Pandora
Год выпуска: 2019
Страна: США
Жанр: фантастика, боевик, драма
Продолжительность: ~ 00:45:00
Перевод: Любительский (двухголосый) | Kerob
Субтитры: отсутствуют

Режиссер: Стивен Хьюз, Бретт Симмонс, Кристиан Госсетт

rating


В ролях: Присцилла Квинтана, Мартин Бобб-Семпл, Ной Хантли, Темина Санни, Бен Рэдклифф, Викаш Бхай, Ти Джэй Дженкенс, Венцислав Ковачев, Карина Банно, Рашель Банно

Описание: 2199-й год. Потерявшая всё Джакс начинает новую жизнь в космической академии, где вместе с друзьями учится защищать планету от человеческих и инопланетных угроз. Однако правда о прошлом девушки может как спасти Вселенную, так и уничтожить её.

Качество: WEBRip
Формат: AVI

Видео: XviD, ~ 1500 Кбит/с, 720x400
Аудио: Русский (AC3, 2 ch, 192 Кбит/с)
скриншот  скриншот  скриншот  скриншот  

Общее
Полное имя : D:\Pandora.S01.400p.Kerob\Pandora.S01E01.400p.Kerob.avi
Формат : AVI
Формат/Информация : Audio Video Interleave
Размер файла : 446 Мбайт
Продолжительность : 42 м. 33 с.
Общий поток : 1464 Кбит/сек
Программа кодирования : VirtualDubMod 1.5.10.2 (build 2540/release)
Библиотека кодирования : VirtualDubMod build 2540/release

Видео
Идентификатор : 0
Формат : xvid
Идентификатор кодека : xvid
Продолжительность : 42 м. 33 с.
Битрейт : 1506 Кбит/сек
Ширина : 720 пикселей
Высота : 400 пикселей
Соотношение сторон : 16:9
Частота кадров : 23,976 кадра/сек
Бит/(Пиксели*Кадры) : 0.175
Размер потока : 367 Мбайт (82%)

Аудио
Идентификатор : 1
Формат : AC-3
Формат/Информация : Audio Coding 3
Расширение режима : CM (complete main)
Параметр Endianness формата : Big
Идентификатор кодека : 2000
Продолжительность : 42 м. 33 с.
Вид битрейта : Постоянный
Битрейт : 192 Кбит/сек
Каналы : 2 канала
Расположение каналов : Front: L R
Частота : 48,0 КГц
Частота кадров : 31,250 кадров/сек (1536 spf)
Метод сжатия : С потерями
Размер потока : 58,5 Мбайт (13%)
Выравнивание : Разделение по промежуткам

Когда раздача ведётся путём добавления новых серий, при каждом добавлении создётся новый торрент. Чтобы начать докачку новой серии, пользователям необходимо сделать следующее:
(1) остановить скачивание,
(2) удалить старый торрент у себя из клиента (старые серии удалять не надо),
(3) скачать новый торрент и запустить его у себя в клиенте вместо старого, при этом указать клиенту путь в старую папку, куда и должно происходить скачивание новых серий.
Ваш клиент при этом должен произвести хеширование (проверку) старой папки (если не производит сам - помогите ему сделать это), и будет докачивать только те серии, которых у вас ещё нет. Старые серии при этом не удаляются, а продолжают раздаваться!
Eсли вы уже удалили старые серии, то предотвратить повторную закачку старых серий можно, отжав галочку в соответсвующих местах при запуске нового торрента. По возможности, желательно не удалять старые серии как можно дольше, чтобы релизёр не столько продолжал раздавать старые серии, а смог сконцентрироваться на новых.
piratbit.org



Скачать Пандора через торрент https://a.radikal.ru/a02/1907/67/80c145080a6d.jpg Скачать фильм Пандора через торрент бесплантно в хорошем качестве Описание: 2199-й год. Потерявшая всё Джакс начинает новую жизнь в космической академии, где вместе с друзьями учится защищать планету от ... 10 10 2
Торрент: Зарегистрирован [2019-09-18 09:20] · скачан: 1 раз
Статус: T временная
Размер: 3.96 GB
Как cкачать? Как скачать Пандора через торрент | qTorrent

% Раздел Тема Автор DL S | L
Зарубежные сериалы [ 26.92 GB ] Пандора / Pandora / Сезон: 1 / Серии: 1-9 из 13 [2019 WEB-DL 1080p] MVO [Lostfilm] bober100 Скачать
2 | 0
T Зарубежные сериалы [ 9.77 GB ] Пандора / Pandora / Сезон: 1 / Серии: 1-10 из 13 [2019 WEBRip 720p] DVO [Kerob] bober100 Скачать
1 | 0
Зарубежные сериалы [ 20.07 GB ] Пандора / Pandora / Сезон: 1 / Серии: 1-7 из 13 [2019 WEB-DL 1080p] MVO [HDRezka Studio] bober100 Скачать
1 | 0
Зарубежные сериалы [ 24.8 GB ] Пандора / Pandora / Сезон: 1 / Серии: 1-9 из 13 [2019 WEB-DL 1080p] MVO [TVShows] bober100 Скачать
1 | 0
T Зарубежные сериалы [ 15.78 GB ] Пандора / Pandora / Сезон: 1 / Серии: 1-8 из 13 [2019 WEBRip 1080p] MVO [Octopus] bober100 Скачать
1 | 0


>> Регистрируемся здесь <<






Отзывы и комментарии о схеме читаем и пишем здесь: ---> Отзывы и комментарии о схеме

Новые благодарочки в телеграм довольных пользователей:
скриншот   скриншот   скриншот   скриншот   скриншот
    Дорогой пользователь! Огромная просьба, поблагодарите релизера, оцените раздачу и оставьте свои комментарий, если Вы скачали Пандора через торрент бесплатно! Внесите свою лепту в развитие PiratBit!
    Комментировать посты могут только пользователи прошедшие не сложную регистрацию
    Показать сообщения:    

    Пандора через торрент
    Скачать бесплатно Пандора
    Пандора скачать торрент
    Пандора смотреть онлайн
    Cкачать фильм Пандора бесплатно
    Пандора скачать торрент в хорошем качестве
    Пандора смотреть онлайн бесплатно в хорошем качестве


    Вы не можете начинать темы
    Вы не можете отвечать на сообщения
    Вы не можете редактировать свои сообщения
    Вы не можете удалять свои сообщения
    Вы не можете голосовать в опросах
    Вы не можете прикреплять файлы к сообщениям
    Вы можете скачивать файлы