Достать ножи: Стеклянная луковица

MVO

Добыча

Дубляж

Уэнсдэй

1 сезон

Тор

Дубляж

13 клиническая

1 сезон

Жестокая ночь

MVO

Одни из нас

1 сезон

Deluxe

pack

Рекомендуем

30

Пиратка

ВАЖНО

ВАЖНО

Ghostwire

Пиратка

jed

RePack

nioh2

RePack

RDR2

RePack

NEED FOR SPEED™ PAYBACK

RePack

скачать торрент

Кинопоиск HD

Острые козырьки 6 сезон

6 сезон

FAR CRY 6

RePack

скачать торрент

Лицензия

скачать торрент

MVO

1

1 сезон

скачать торрент

1 сезон

скачать торрент

Лицензия

  

Хеллбой / Hellboy (Нил Маршалл) [2019, фэнтези, боевик, приключения, UHD BDRemux 2160p] [Dolby Vision TV] Дубляж [iTunes]

Хеллбой через торрент piratbit.org

Размер: 62.7 GB | Добавлен: 3 года 6 мес. назад | Торрент скачан:44 раза
Смотреть онлайн | Скачать | Поддержите нас   

18-07-2019 00:32 Хеллбой Скачать торрент  

Хеллбой / Hellboy««Легенда возвращается»»
Год выпуска: 2019
Страна: США Великобритания Болгария
Жанр: фэнтези, боевик, приключения
Продолжительность: 02:01:02
Перевод: Дублированный | iTunes
Субтитры: Русские (Forced)

Режиссер: Нил Маршалл

rating

В ролях:

Дэвид Харбор (Hellboy), Иэн Макшейн (Professor Broom), Милла Йовович (Nimue / The Blood Queen), Саша Лэйн (Alice Monaghan), Дэниэл Дэ Ким (Major Ben Daimio), Алистэр Петри (Lord Adam Glaren), Софи Оконедо (Lady Hatton), Брин Глисон (Merlin), Томас Хейден Чёрч (Lobster Johnson), Стивен Грэм (Gruagach, озвучка), Марк Стэнли (Arthur), Надя Керанова (Sister)
Описание:

Близится час битвы Хеллбоя с Кровавой королевой, жаждущей отомстить всему человечеству за века в заточении. Оказавшись в эпицентре столкновения миров людей и монстров, Хеллбою придется пройти через ад, чтобы предотвратить надвигающийся апокалипсис.

Качество: UHD BDRemux 2160p | Dolby Vision TV
Формат: MP4

Видео: 3840x2160 at 23.976 fps, MPEG-H HEVC HDR Video, 66100 kbps avg
Аудио: 48 kHz, AC3, 5.1, 384 Kbps | iTunes | RUS |
Релиз от:
Данный вид релизов (контейнер MP4) предназначен для встроенного в ТВ (соответственно, с поддержкой DV) плеер.
Т.Е. Можно использовать как USB flash/HDD, так и DLNA / Plex - подобные сервисы/программы. дополнительный-внешний плеер не обязателен.

Внимание!
На моделях LG 2016 возможны сюрпризы "через раз", 2017-2018 должно идти без сюрпризов )
скриншот  скриншот  скриншот  скриншот  скриншот  

Общее
Полное имя : Hellboy.2019.UHD.BDRemux.2160p.DV.IVA.RUS.ExKinoRay.mp4
Формат : MPEG-4
Профиль формата : Base Media / Version 2
Идентификатор кодека : mp42 (mp42/iso6/isom/msdh/dby1)
Размер файла : 62,7 Гбайт
Продолжительность : 2 ч. 1 м.
Общий поток : 74,2 Мбит/сек
Дата кодирования : UTC 2019-07-17 20:24:54
Дата пометки : UTC 2019-07-17 20:24:54

Видео #1
Идентификатор : 1
Формат : HEVC
Формат/Информация : High Efficiency Video Coding
Профиль формата : Main 10@L5.1@High
HDR_Format : SMPTE ST 2086, HDR10 compatible
Идентификатор кодека : hev1
Идентификатор кодека/Информация : High Efficiency Video Coding
Продолжительность : 2 ч. 1 м.
Битрейт : 66,1 Мбит/сек
Ширина : 3840 пикселей
Высота : 2160 пикселей
Соотношение сторон : 16:9
Режим частоты кадров : Постоянный
Частота кадров : 23,976 (24000/1001) кадра/сек
Цветовое пространство : YUV
Субдискретизация насыщенности : 4:2:0 (Type 2)
Битовая глубина : 10 бит
Бит/(Пиксели*Кадры) : 0.332
Размер потока : 55,9 Гбайт (89%)
Default : Нет
Дата кодирования : UTC 2019-07-17 20:24:54
Дата пометки : UTC 2019-07-17 20:24:54
Цветовой диапазон : Limited
Основные цвета : BT.2020
Характеристики трансфера : PQ
Коэффициенты матрицы : BT.2020 non-constant
MasteringDisplay_ColorPrimaries : Display P3
MasteringDisplay_Luminance : min: 0.0001 cd/m2, max: 4000 cd/m2
MaxCLL : 3947 cd/m2
MaxFALL : 542 cd/m2
Codec configuration box : hvcC

Видео #2
Идентификатор : 2
Формат : HEVC
Формат/Информация : High Efficiency Video Coding
Профиль формата : Main 10@L5.1@High
HDR_Format : Dolby Vision, Version 1.0, dvhe.07.06, EL+RPU / SMPTE ST 2086, HDR10 compatible
Идентификатор кодека : dvhe
Идентификатор кодека/Информация : High Efficiency Video Coding with Dolby Vision
Продолжительность : 2 ч. 1 м.
Битрейт : 7653 Кбит/сек
Ширина : 1920 пикселей
Высота : 1080 пикселей
Соотношение сторон : 16:9
Режим частоты кадров : Постоянный
Частота кадров : 23,976 (24000/1001) кадра/сек
Цветовое пространство : YUV
Субдискретизация насыщенности : 4:2:0 (Type 2)
Битовая глубина : 10 бит
Бит/(Пиксели*Кадры) : 0.154
Размер потока : 6,47 Гбайт (10%)
Default : Нет
Дата кодирования : UTC 2019-07-17 20:24:54
Дата пометки : UTC 2019-07-17 20:24:54
Цветовой диапазон : Limited
Основные цвета : BT.2020
Характеристики трансфера : PQ
Коэффициенты матрицы : BT.2020 non-constant
MasteringDisplay_ColorPrimaries : Display P3
MasteringDisplay_Luminance : min: 0.0001 cd/m2, max: 4000 cd/m2
Codec configuration box : hvcC+dvcC

Аудио
Идентификатор : 3
Формат : AC-3
Формат/Информация : Audio Coding 3
Коммерческое название : Dolby Digital
Идентификатор кодека : ac-3
Продолжительность : 2 ч. 1 м.
Вид битрейта : Постоянный
Битрейт : 384 Кбит/сек
Каналы : 6 каналов
ChannelLayout : L R C LFE Ls Rs
Частота : 48,0 КГц
Частота кадров : 31,250 кадров/сек (1536 SPF)
Битовая глубина : 16 бит
Метод сжатия : С потерями
Размер потока : 332 Мбайт (1%)
Язык : Russian
ServiceKind : Complete Main
Default : Нет
Дата кодирования : UTC 2019-07-17 20:24:54
Дата пометки : UTC 2019-07-17 20:24:54




Скачать Хеллбой через торрент https://a.radikal.ru/a15/1804/77/25bd8085c8d9.png Скачать, смотреть онлайн Хеллбой бесплантно в хорошем качестве Описание: Близится час битвы Хеллбоя с Кровавой королевой, жаждущей отомстить всему человечеству за века в заточении. Оказавшись в ... 8.2 10 5
Торрент: Зарегистрирован [2019-07-18 00:32] · скачан: 44 раз
Статус: √ проверено
Размер: 62.7 GB
Как cкачать? Как скачать Хеллбой через торрент | UTorrent

% Раздел Тема Автор DL S | L
Ultra HD (UHD: 2K, 4K, 8K) [ 56.96 GB ] Хеллбой / Hellboy | iTunes | 2160p sheker187 Скачать
1 | 0
Фильмы 2019-2020 [DVDrip, WEB-DLRip, HDrip] (DUB, MVO) [ 2.42 GB ] Хеллбой / Hellboy | Лицензия | HDRip-AVC Enigma2010 Скачать
2 | 0
Ultra HD (UHD: 2K, 4K, 8K) [ 13.67 GB ] Хеллбой / Hellboy | Лицензия | 2160p bober100 Скачать
1 | 0
Ultra HD (UHD: 2K, 4K, 8K) [ 25.02 GB ] Хеллбой / Hellboy | Лицензия | 2160p bober100 Скачать
1 | 0
Фильмы [HD 720p, 1080p] (Хороший звук DUB, MVO) [ 7.01 GB ] Хеллбой / Hellboy | Лицензия | 1080p, (10 bit bober100 Скачать
1 | 0
Фильмы 2019-2020 [DVDrip, WEB-DLRip, HDrip] (DUB, MVO) [ 2.18 GB ] Хеллбой / Hellboy | Лицензия | BDRip Twi7ter Скачать
2 | 0
Фильмы 2019-2020 [DVDrip, WEB-DLRip, HDrip] (DUB, MVO) [ 1.46 GB ] Хеллбой / Hellboy | Лицензия | BDRip Twi7ter Скачать
1 | 0

28-11-2019 20:33  


Отключить вcю реклaмy на сайте, в т.ч. и в плеере онлайн просмотра!

06-01-2021 05:52 Хеллбой Скачать торрент  

пожалуйста встаньте на раздачу



    Дорогой пользователь! Огромная просьба, поблагодарите релизера, оцените раздачу и оставьте свои комментарий, если Вы скачали Хеллбой через торрент бесплатно!!
    Комментировать посты могут только пользователи прошедшие не сложную регистрацию
    Показать сообщения:    


    Хеллбой через торрент
    Скачать бесплатно Хеллбой
    Хеллбой скачать торрент
    Хеллбой смотреть онлайн
    Cкачать фильм Хеллбой бесплатно
    Хеллбой скачать торрент в хорошем качестве
    Хеллбой смотреть онлайн бесплатно в хорошем качестве
    Вы не можете начинать темы
    Вы не можете отвечать на сообщения
    Вы не можете редактировать свои сообщения
    Вы не можете удалять свои сообщения
    Вы не можете голосовать в опросах
    Вы не можете прикреплять файлы к сообщениям
    Вы можете скачивать файлы
    Хеллбой / Hellboy [2019, фэнтези, боевик, приключения, UHD BDRemux 2160p] [Dolby Vision TV] Дубляж [iTunes] смотреть онлайн, скачать торрент picoco.icu