MEGA SALE -50% FORZA HORIZON 4 ULTIMATE+ВСЕ DLC+ОНЛАЙН всего за 599р. 299 руб. (супер цена). Внимание количество ограничено!!!

iTunes

1+1

iTunes

мы

iTunes

1

iTunes

Чернобыль

iTunes

Ральф против интернета

Лицензия

ПШазам

Лицензия

Игра престолов

Лицензия

30
pack

ВАЖНО

!!Акция!!

Alien_RageХит недели

RePack

Resident Evil 21

ИГРА 18+

pack

RePack

Metro:Exodus

!!Акция!!

Alien_Rage

RePack

fifa19

RePack

Assassins Creed: Odyssey

RePack

NEED FOR SPEED™ PAYBACK

3 сезон

9 сезон

Бесстыжие 9 сезон

Все сериалы

все сериалы на PB.wtf

RePack

FAR CRY 5
Ребята, катастрофически не хватает 7730р. для оплаты серверов за АВГУСТ (всвязи с блокировками трафик упал в 3 раза), 1-2р., выручайте.
  

Пандора / Pandora / Сезон: 1 / Серии: 1-9 из 13 (Стивен Хьюз, Бретт Симмонс, Кристиан Госсетт) [2019, фантастика, боевик, драма, WEBRip] MVO [Jaskier] piratbit.org

Пандора через торрент piratbit.org

Раздают: 2 [ 135 KB/s ]
Размер: 4.63 GB | Добавлен: 5 д. назад | Торрент скачан:3 раза
Скачать  

19-07-2019 11:50 Пандора Скачать торрент  

Пандора / Pandora
Год выпуска: 2019
Страна: США
Жанр: фантастика, боевик, драма
Продолжительность: ~ 00:45:00
Перевод: Профессиональный (многоголосый) | Jaskier
Субтитры: отсутствуют

Режиссер: Стивен Хьюз, Бретт Симмонс, Кристиан Госсетт

rating

В ролях: Присцилла Квинтана, Мартин Бобб-Семпл, Ной Хантли, Темина Санни, Бен Рэдклифф, Викаш Бхай, Ти Джэй Дженкенс, Венцислав Ковачев, Карина Банно, Рашель Банно

Описание: 2199-й год. Потерявшая всё Джакс начинает новую жизнь в космической академии, где вместе с друзьями учится защищать планету от человеческих и инопланетных угроз. Однако правда о прошлом девушки может как спасти Вселенную, так и уничтожить её.

Качество: WEBRip
Формат: AVI

Видео: XviD, 1400 Кбит/с, 720x400
Аудио: Русский (AC3, 2 ch, 384 Кбит/с)
скриншот  скриншот  скриншот  

Общее
Полное имя : C:\Pandora. Season 1 (WEBRip l 400p l Jaskier)\Pandora.S01E01.WEBRip.Rus.Jaskier.avi
Формат : AVI
Формат/Информация : Audio Video Interleave
Размер файла : 554 Мбайт
Продолжительность : 43 м. 9 с.
Общий поток : 1793 Кбит/сек
Программа кодирования : VirtualDubMod 1.5.10.3 | www.virtualdub-fr.org || (build 2550/release)
Библиотека кодирования : VirtualDubMod build 2550/release

Видео
Идентификатор : 0
Формат : MPEG-4 Visual
Профиль формата : Advanced Simple@L5
Настройки формата : BVOP1 / Custom Matrix
Параметр BVOP формата : 1
Параметр QPel формата : Нет
Параметр GMC формата : Без точки перехода
Параметр матрицы формата : Выборочная
Идентификатор кодека : XVID
Идентификатор кодека/Подсказка : XviD
Продолжительность : 43 м. 9 с.
Битрейт : 1329 Кбит/сек
Ширина : 720 пикселей
Высота : 400 пикселей
Соотношение сторон : 16:9
Частота кадров : 23,976 (24000/1001) кадра/сек
Цветовое пространство : YUV
Субдискретизация насыщенности : 4:2:0
Битовая глубина : 8 бит
Тип развёртки : Прогрессивная
Метод сжатия : С потерями
Бит/(Пиксели*Кадры) : 0.193
Размер потока : 410 Мбайт (74%)
Библиотека кодирования : XviD 73

Аудио
Идентификатор : 1
Формат : AC-3
Формат/Информация : Audio Coding 3
Коммерческое название : Dolby Digital
Идентификатор кодека : 2000
Продолжительность : 43 м. 9 с.
Вид битрейта : Постоянный
Битрейт : 384 Кбит/сек
Каналы : 2 канала
ChannelLayout : L R
Частота : 48,0 КГц
Частота кадров : 31,250 кадров/сек (1536 SPF)
Битовая глубина : 16 бит
Метод сжатия : С потерями
Размер потока : 119 Мбайт (21%)
Выравнивание : Разделение по промежуткам
ServiceKind/String : Complete Main

Когда раздача ведётся путём добавления новых серий, при каждом добавлении создётся новый торрент. Чтобы начать докачку новой серии, пользователям необходимо сделать следующее:
(1) остановить скачивание,
(2) удалить старый торрент у себя из клиента (старые серии удалять не надо),
(3) скачать новый торрент и запустить его у себя в клиенте вместо старого, при этом указать клиенту путь в старую папку, куда и должно происходить скачивание новых серий.
Ваш клиент при этом должен произвести хеширование (проверку) старой папки (если не производит сам - помогите ему сделать это), и будет докачивать только те серии, которых у вас ещё нет. Старые серии при этом не удаляются, а продолжают раздаваться!
Eсли вы уже удалили старые серии, то предотвратить повторную закачку старых серий можно, отжав галочку в соответсвующих местах при запуске нового торрента. По возможности, желательно не удалять старые серии как можно дольше, чтобы релизёр не столько продолжал раздавать старые серии, а смог сконцентрироваться на новых.
piratbit.org



Скачать Пандора через торрент https://d.radikal.ru/d35/1907/44/44ef441c9a6c.jpg Скачать фильм Пандора через торрент бесплантно в хорошем качестве Описание: 2199-й год. Потерявшая всё Джакс начинает новую жизнь в космической академии, где вместе с друзьями учится защищать планету от ... 10 10 3
Торрент: Зарегистрирован [2019-09-14 00:10] · скачан: 3 раз
Статус: √ проверено
Размер: 4.63 GB
Как cкачать? Как скачать Пандора через торрент | qTorrent

% Раздел Тема Автор DL S | L
Зарубежные сериалы [ 26.92 GB ] Пандора / Pandora / Сезон: 1 / Серии: 1-9 из 13 [2019 WEB-DL 1080p] MVO [Lostfilm] bober100 Скачать
2 | 0
Зарубежные сериалы [ 24.8 GB ] Пандора / Pandora / Сезон: 1 / Серии: 1-9 из 13 [2019 WEB-DL 1080p] MVO [TVShows] bober100 Скачать
1 | 0
Зарубежные сериалы [ 8.18 GB ] Пандора / Pandora / Сезон: 1 / Серии: 1-9 из 13 [2019 WEBRip 720p] MVO [Jaskier] bober100 Скачать
1 | 0


>> Регистрируемся здесь <<






Отзывы и комментарии о схеме читаем и пишем здесь: ---> Отзывы и комментарии о схеме

Новые благодарочки в телеграм довольных пользователей:
скриншот   скриншот   скриншот   скриншот   скриншот
    Дорогой пользователь! Огромная просьба, поблагодарите релизера, оцените раздачу и оставьте свои комментарий, если Вы скачали Пандора через торрент бесплатно! Внесите свою лепту в развитие PiratBit!
    Комментировать посты могут только пользователи прошедшие не сложную регистрацию
    Показать сообщения:    

    Пандора через торрент
    Скачать бесплатно Пандора
    Пандора скачать торрент
    Пандора смотреть онлайн
    Cкачать фильм Пандора бесплатно
    Пандора скачать торрент в хорошем качестве
    Пандора смотреть онлайн бесплатно в хорошем качестве


    Вы не можете начинать темы
    Вы не можете отвечать на сообщения
    Вы не можете редактировать свои сообщения
    Вы не можете удалять свои сообщения
    Вы не можете голосовать в опросах
    Вы не можете прикреплять файлы к сообщениям
    Вы можете скачивать файлы