Достать ножи: Стеклянная луковица

MVO

Добыча

Дубляж

Уэнсдэй

1 сезон

Тор

Дубляж

13 клиническая

1 сезон

Жестокая ночь

MVO

Одни из нас

1 сезон

Deluxe

pack

Рекомендуем

30

Пиратка

ВАЖНО

ВАЖНО

Ghostwire

Пиратка

jed

RePack

nioh2

RePack

RDR2

RePack

NEED FOR SPEED™ PAYBACK

RePack

скачать торрент

Кинопоиск HD

Острые козырьки 6 сезон

6 сезон

FAR CRY 6

RePack

скачать торрент

Лицензия

скачать торрент

MVO

1

1 сезон

скачать торрент

1 сезон

скачать торрент

Лицензия

  

Мачо и ботан 2 / 22 Jump Street (Фил Лорд , Кристофер Миллер) [2014, Боевик, комедия, криминал, UHD WEBRip 2160p] Дубляж (rus, ukr) + AVO [Алексей Матвеев]

Мачо и ботан 2 через торрент piratbit.org

Размер: 9.76 GB | Добавлен: 3 года 6 мес. назад | Торрент скачан:9 раз
Смотреть онлайн | Скачать | Поддержите нас   

21-07-2019 06:56 Мачо и ботан 2 Скачать торрент  

Мачо и ботан 2 / 22 Jump Street««Копам под прикрытием крыша не нужна»»

Год выпуска: 2014
Страна: США
Жанр: Боевик, комедия, криминал
Продолжительность: 01:51:56
Перевод: Дублированный, авторский
Субтитры: русские (forced, full),английские
Режиссер: Фил Лорд , Кристофер Миллер
В ролях:

Джона Хилл (Schmidt), Ченнинг Татум (Jenko), Петер Стормаре (The Ghost), Уайатт Рассел (Zook), Эмбер Стивенс (Maya), Джиллиан Белл (Mercedes), Айс Кьюб (Captain Dickson), Кит Лукас (Keith Yang), Кеннет Лукас (Kenny Yang), Ник Офферман (Deputy Chief Hardy), Джимми Татро (Rooster), Кэролайн Аарон (Annie Schmidt)
Описание:
Офицерам Шмидту и Дженко теперь предстоит работать под прикрытием в местном колледже. Однако когда Дженко встречает родственную душу в футбольной команде, а Шмидт проникает в богемную среду, они начинают сомневаться в их товариществе...
Рейтинг:

MPAA: R - Лицам до 17 лет обязательно присутствие взрослого
Качество: UHD WEBRip 2160p
Формат: MKV
Видео: HEVC HDR, 9915 Кбит/с, 3840x1600, 23.976 кадр/с, 10 Бит
Аудио 1: |RUS| 48 kHz, AC3, 3/2 (L,C,R,l,r) + LFE ch, 640.00 kbps avg |Blu-ray CEE|
Аудио 2: |UKR| 48 kHz, AC3, 3/2 (L,C,R,l,r) + LFE ch, 640.00 kbps avg |Blu-ray CEE|
Аудио 3: |RUS| 48 kHz, AC3, 3/2 (L,C,R,l,r) + LFE ch, 640.00 kbps avg |Алексей Матвеев|
Аудио 4: |ENG| 48 kHz, AC3, 3/2 (L,C,R,l,r) + LFE ch, 640.00 kbps |Original|
Навигация по главам: есть

Общее
Уникальный идентификатор : 195908988077908053831879370272460028025 (0x9362B2DAD12FC7A1BA4AE39DD4C0B879)
Полное имя : D:\Мои раздачи\Передел\22.Jump.Street.2014.2160p.HDR.WEBRip.10bit.Master5.mkv
Формат : Matroska
Версия формата : Version 4 / Version 2
Размер файла : 9,76 Гбайт
Продолжительность : 1 ч. 51 м.
Общий поток : 12,5 Мбит/сек
Название фильма : 22.Jump.Street.2014.2160p.HDR.WEBRip.10bit.Master5
Дата кодирования : UTC 2019-07-21 05:39:55
Программа кодирования : mkvmerge v7.9.0 ('Birds') 64bit
Библиотека кодирования : libebml v1.3.1 + libmatroska v1.4.2
Attachments : 22-Jump-Street.jpg

Видео
Идентификатор : 1
Формат : HEVC
Формат/Информация : High Efficiency Video Coding
Коммерческое название : HDR10
Профиль формата : Main 10@L5.1@High
Идентификатор кодека : V_MPEGH/ISO/HEVC
Продолжительность : 1 ч. 51 м.
Битрейт : 9915 Кбит/сек
Ширина : 3840 пикселей
Высота : 1600 пикселей
Соотношение сторон : 2,40:1
Режим частоты кадров : Постоянный
Частота кадров : 23,976 (24000/1001) кадра/сек
Цветовое пространство : YUV
Субдискретизация насыщенности : 4:2:0
Битовая глубина : 10 бит
Бит/(Пиксели*Кадры) : 0.067
Размер потока : 7,75 Гбайт (79%)
Заголовок : 22.Jump.Street.2014.2160p.HDR.WEBRip.10bit.Master5
Язык : English
Default : Да
Forced : Нет
Цветовой диапазон : Limited
Основные цвета : BT.2020
Характеристики трансфера : PQ
Коэффициенты матрицы : BT.2020 non-constant
MasteringDisplay_ColorPrimaries : BT.2020
MasteringDisplay_Luminance : min: 0.0001 cd/m2, max: 1000 cd/m2

Аудио #1
Идентификатор : 2
Формат : AC-3
Формат/Информация : Audio Coding 3
Идентификатор кодека : A_AC3
Продолжительность : 1 ч. 51 м.
Вид битрейта : Постоянный
Битрейт : 640 Кбит/сек
Каналы : 6 каналов
Расположение каналов : Front: L C R, Side: L R, LFE
Частота : 48,0 КГц
Частота кадров : 31,250 кадров/сек (1536 SPF)
Битовая глубина : 16 бит
Метод сжатия : С потерями
Размер потока : 512 Мбайт (5%)
Заголовок : Дубляж-Blu-ray CEE
Язык : Russian
ServiceKind/String : Complete Main
Default : Да
Forced : Нет

Аудио #2
Идентификатор : 3
Формат : AC-3
Формат/Информация : Audio Coding 3
Идентификатор кодека : A_AC3
Продолжительность : 1 ч. 51 м.
Вид битрейта : Постоянный
Битрейт : 640 Кбит/сек
Каналы : 6 каналов
Расположение каналов : Front: L C R, Side: L R, LFE
Частота : 48,0 КГц
Частота кадров : 31,250 кадров/сек (1536 SPF)
Битовая глубина : 16 бит
Метод сжатия : С потерями
Размер потока : 512 Мбайт (5%)
Заголовок : Дубляж-Blu-ray CEE
Язык : Ukrainian
ServiceKind/String : Complete Main
Default : Нет
Forced : Нет

Аудио #3
Идентификатор : 4
Формат : AC-3
Формат/Информация : Audio Coding 3
Идентификатор кодека : A_AC3
Продолжительность : 1 ч. 51 м.
Вид битрейта : Постоянный
Битрейт : 640 Кбит/сек
Каналы : 6 каналов
Расположение каналов : Front: L C R, Side: L R, LFE
Частота : 48,0 КГц
Частота кадров : 31,250 кадров/сек (1536 SPF)
Битовая глубина : 16 бит
Метод сжатия : С потерями
Размер потока : 512 Мбайт (5%)
Заголовок : Doctor_Joker
Язык : Russian
ServiceKind/String : Complete Main
Default : Нет
Forced : Нет

Аудио #4
Идентификатор : 5
Формат : AC-3
Формат/Информация : Audio Coding 3
Идентификатор кодека : A_AC3
Продолжительность : 1 ч. 51 м.
Вид битрейта : Постоянный
Битрейт : 640 Кбит/сек
Каналы : 6 каналов
Расположение каналов : Front: L C R, Side: L R, LFE
Частота : 48,0 КГц
Частота кадров : 31,250 кадров/сек (1536 SPF)
Битовая глубина : 16 бит
Метод сжатия : С потерями
Размер потока : 512 Мбайт (5%)
Заголовок : Original
Язык : English
ServiceKind/String : Complete Main
Default : Нет
Forced : Нет

Текст #1
Идентификатор : 6
Формат : UTF-8
Идентификатор кодека : S_TEXT/UTF8
Идентификатор кодека/Информация : UTF-8 Plain Text
Продолжительность : 1 ч. 44 м.
Битрейт : 1 бит/сек
ElementCount : 22
Размер потока : 915 байт (0%)
Заголовок : Sub- Forced
Язык : Russian
Default : Да
Forced : Нет

Текст #2
Идентификатор : 7
Формат : UTF-8
Идентификатор кодека : S_TEXT/UTF8
Идентификатор кодека/Информация : UTF-8 Plain Text
Продолжительность : 1 ч. 50 м.
Битрейт : 108 бит/сек
ElementCount : 1963
Размер потока : 88,3 Кбайт (0%)
Заголовок : Sub- full
Язык : Russian
Default : Нет
Forced : Нет

Текст #3
Идентификатор : 8
Формат : UTF-8
Идентификатор кодека : S_TEXT/UTF8
Идентификатор кодека/Информация : UTF-8 Plain Text
Продолжительность : 1 ч. 50 м.
Битрейт : 88 бит/сек
ElementCount : 2014
Размер потока : 71,5 Кбайт (0%)
Заголовок : Sub
Язык : English
Default : Нет
Forced : Нет

Меню
00:00:00.000 : en:00:00:00.000
00:06:21.798 : en:00:06:21.798
00:13:09.372 : en:00:13:09.372
00:19:57.363 : en:00:19:57.363
00:26:32.174 : en:00:26:32.174
00:31:30.097 : en:00:31:30.097
00:36:47.247 : en:00:36:47.247
00:43:49.252 : en:00:43:49.252
00:51:46.395 : en:00:51:46.395
00:58:58.410 : en:00:58:58.410
01:07:30.588 : en:01:07:30.588
01:16:28.250 : en:01:16:28.250
01:23:02.603 : en:01:23:02.603
01:29:51.678 : en:01:29:51.678
01:35:25.470 : en:01:35:25.470
01:41:57.194 : en:01:41:57.194



Скачать Мачо и ботан 2 через торрент https://b.radikal.ru/b25/1907/c0/65d7eab39039.png Скачать, смотреть онлайн Мачо и ботан 2 бесплантно в хорошем качестве Описание: Офицерам Шмидту и Дженко теперь предстоит работать под прикрытием в местном колледже. Однако когда Дженко встречает родственную ... 10 10 3
Торрент: Зарегистрирован [2019-07-21 06:56] · скачан: 9 раз
Статус: √ проверено
Размер: 9.76 GB
Как cкачать? Как скачать Мачо и ботан 2 через торрент | UTorrent

% Раздел Тема Автор DL S | L
Ultra HD (UHD: 2K, 4K, 8K) [ 52.75 GB ] Мачо и ботан 2 / 22 Jump Street | Лицензия | 2160p bober100 Скачать
1 | 0

28-11-2019 20:33  


Отключить вcю реклaмy на сайте, в т.ч. и в плеере онлайн просмотра!

    Дорогой пользователь! Огромная просьба, поблагодарите релизера, оцените раздачу и оставьте свои комментарий, если Вы скачали Мачо и ботан 2 через торрент бесплатно!!
    Комментировать посты могут только пользователи прошедшие не сложную регистрацию
    Показать сообщения:    


    Мачо и ботан 2 через торрент
    Скачать бесплатно Мачо и ботан 2
    Мачо и ботан 2 скачать торрент
    Мачо и ботан 2 смотреть онлайн
    Cкачать фильм Мачо и ботан 2 бесплатно
    Мачо и ботан 2 скачать торрент в хорошем качестве
    Мачо и ботан 2 смотреть онлайн бесплатно в хорошем качестве
    Вы не можете начинать темы
    Вы не можете отвечать на сообщения
    Вы не можете редактировать свои сообщения
    Вы не можете удалять свои сообщения
    Вы не можете голосовать в опросах
    Вы не можете прикреплять файлы к сообщениям
    Вы можете скачивать файлы
    Мачо и ботан 2 / 22 Jump Street [2014, Боевик, комедия, криминал, UHD WEBRip 2160p] Дубляж + AVO [Алексей Матвеев] смотреть онлайн, скачать торрент picoco.icu