Достать ножи: Стеклянная луковица

MVO

Добыча

Дубляж

Уэнсдэй

1 сезон

Тор

Дубляж

13 клиническая

1 сезон

Жестокая ночь

MVO

Одни из нас

1 сезон

Deluxe

pack

Рекомендуем

30

Пиратка

ВАЖНО

ВАЖНО

Ghostwire

Пиратка

jed

RePack

nioh2

RePack

RDR2

RePack

NEED FOR SPEED™ PAYBACK

RePack

скачать торрент

Кинопоиск HD

Острые козырьки 6 сезон

6 сезон

FAR CRY 6

RePack

скачать торрент

Лицензия

скачать торрент

MVO

1

1 сезон

скачать торрент

1 сезон

скачать торрент

Лицензия

  

Зов волка / Le chant du loup (Абель Ланзак) [2019, боевик, драма, военный, UHD BDRemux 2160p] MVO [СВ Студия]

Зов волка через торрент piratbit.org

Размер: 65.11 GB | Добавлен: 3 года 6 мес. назад | Торрент скачан:32 раза
Смотреть онлайн | Скачать | Поддержите нас   

22-07-2019 09:00 Зов волка Скачать торрент  

Зов волка / Le chant du loup««Когда нет места страху, нет права на ошибку и нет времени на раздумья...»»

Год выпуска: 2019
Страна: Франция
Жанр: боевик, драма, военный
Продолжительность: 01:55:55
Перевод: Профессиональный многоголосый | СВ Студия
Субтитры: английские (full), французские (full)
Режиссер: Абель Ланзак
В ролях:

Франсуа Сивиль (Chanteraide), Омар Си (D'Orsi), Матьё Кассовиц (Alfost), Реда Катеб (Grandchamp), Паула Бир (Diane), Алексис Михалик (Second SNLE-B2R), Жан-Ив Бертело (Commandant CIRA), Дамиен Боннар (Officier navigation SNLE), Pierre Cevaer (Veilleur sonar SNA), Себастьен Либессар (Cadet SNA), Paul Granier (Opérateur table SNA), Etienne Guillou-Kervern (Maître de centrale)
Описание:
Молодой подводник обладает редким даром распознавать каждый звук, который он слышит. От его «Золотого уха» зависят судьбы людей, а ошибка ставит под угрозу жизнь всего экипажа подводной лодки. Желая вернуть доверие своих товарищей, он проводит собственное расследование военной провокации, в результате которой весь мир оказывается в шаге от ядерного апокалипсиса. Чтобы предотвратить мировую войну, элитной боевой команде подлодки необходимо совершить невозможное, ведь главный приказ отмене не подлежит.
Рейтинг:

Качество: UHD BDRemux 2160p
Формат: MKV
Видео: HEVC HDR, 75.4 Мбит/с, 3840x2160, 23.976 Кадр/с
Аудио #1: AC3, 6 ch, 640 Kbps - Русский |MVO| СВ Студия
Аудио #2: TrueHD+Atmos, 8 ch, 3635 kbps - Французкий
Аудио #3: AC3, 6 ch, 640 kbps - Французкий
Навигация по главам: есть

General
Unique ID : 260161281471384250689504994590506190356 (0xC3B93D8014604607C751CED311018614)
Complete name : I:\Le.chant.du.loup.2019.2160p.HDR.BDRemux.TeamHD.mkv
Format : Matroska
Format version : Version 4
File size : 65.1 GiB
Duration : 1 h 55 min
Overall bit rate mode : Variable
Overall bit rate : 80.4 Mb/s
Movie name : Le chant du loup.2019.BDRemux,2160p.HDR by Silverok
Encoded date : UTC 2019-07-04 14:51:24
Writing application : mkvmerge v35.0.0 ('All The Love In The World') 64-bit
Writing library : libebml v1.3.9 + libmatroska v1.5.2
Cover : Yes
Attachments : cover.jpg

Video
ID : 1
Format : HEVC
Format/Info : High Efficiency Video Coding
Commercial name : HDR10
Format profile : Main 10@L5.1@High
Codec ID : V_MPEGH/ISO/HEVC
Duration : 1 h 55 min
Bit rate : 75.4 Mb/s
Width : 3 840 pixels
Height : 2 160 pixels
Display aspect ratio : 16:9
Frame rate mode : Constant
Frame rate : 23.976 (24000/1001) FPS
Color space : YUV
Chroma subsampling : 4:2:0 (Type 2)
Bit depth : 10 bits
Bits/(Pixel*Frame) : 0.379
Stream size : 61.1 GiB (94%)
Title : BDRemux,2160p.HDR by Silverok
Writing library : ATEME Titan File 3.9.0 (4.9.0.0)
Default : Yes
Forced : No
Color range : Limited
Color primaries : BT.2020
Transfer characteristics : PQ
Matrix coefficients : BT.2020 non-constant
Mastering display color primaries : BT.2020
Mastering display luminance : min: 0.0050 cd/m2, max: 1000 cd/m2
Maximum Content Light Level : 1000 cd/m2
Maximum Frame-Average Light Level : 300 cd/m2

Audio #1
ID : 2
Format : AC-3
Format/Info : Audio Coding 3
Commercial name : Dolby Digital
Codec ID : A_AC3
Duration : 1 h 55 min
Bit rate mode : Constant
Bit rate : 640 kb/s
Channel(s) : 6 channels
Channel layout : L R C LFE Ls Rs
Sampling rate : 48.0 kHz
Frame rate : 31.250 FPS (1536 SPF)
Bit depth : 16 bits
Compression mode : Lossy
Stream size : 530 MiB (1%)
Title : Многоголосый закадровый, СВ Студия
Language : Russian
Service kind : Complete Main
Default : Yes
Forced : No

Audio #2
ID : 3
Format : MLP FBA 16-ch
Format/Info : Meridian Lossless Packing FBA with 16-channel presentation
Commercial name : Dolby TrueHD with Dolby Atmos
Codec ID : A_TRUEHD
Duration : 1 h 55 min
Bit rate mode : Variable
Bit rate : 3 635 kb/s
Maximum bit rate : 5 967 kb/s
Channel(s) : 8 channels
Channel layout : L R C LFE Ls Rs Lb Rb
Sampling rate : 48.0 kHz
Frame rate : 1 200.000 FPS (40 SPF)
Compression mode : Lossless
Stream size : 2.94 GiB (5%)
Language : French
Default : No
Forced : No
Number of dynamic objects : 11
Bed channel count : 1 channel
Bed channel configuration : LFE

Audio #3
ID : 4
Format : AC-3
Format/Info : Audio Coding 3
Commercial name : Dolby Digital
Codec ID : A_AC3
Duration : 1 h 55 min
Bit rate mode : Constant
Bit rate : 640 kb/s
Channel(s) : 6 channels
Channel layout : L R C LFE Ls Rs
Sampling rate : 48.0 kHz
Frame rate : 31.250 FPS (1536 SPF)
Bit depth : 16 bits
Compression mode : Lossy
Stream size : 531 MiB (1%)
Language : French
Service kind : Complete Main
Default : No
Forced : No

Text #1
ID : 5
Format : UTF-8
Codec ID : S_TEXT/UTF8
Codec ID/Info : UTF-8 Plain Text
Duration : 1 h 54 min
Bit rate : 37 b/s
Count of elements : 1167
Stream size : 31.5 KiB (0%)
Title : Full
Language : English
Default : Yes
Forced : No

Text #2
ID : 6
Format : UTF-8
Codec ID : S_TEXT/UTF8
Codec ID/Info : UTF-8 Plain Text
Duration : 1 h 54 min
Bit rate : 54 b/s
Count of elements : 1627
Stream size : 45.6 KiB (0%)
Title : Full
Language : French
Default : No
Forced : No

Menu
00:00:00.000 : en:Chapter 01
00:12:02.138 : en:Chapter 02
00:22:56.792 : en:Chapter 03
00:32:05.090 : en:Chapter 04
00:40:23.880 : en:Chapter 05
00:51:37.594 : en:Chapter 06
01:01:48.997 : en:Chapter 07
01:12:54.662 : en:Chapter 08
01:19:21.131 : en:Chapter 09
01:28:48.949 : en:Chapter 10
01:39:49.567 : en:Chapter 11
01:49:54.421 : en:Chapter 12
01:55:44.938 : en:Chapter 13



Скачать Зов волка через торрент https://c.radikal.ru/c21/1907/e8/7c01e2a93998.png Скачать, смотреть онлайн Зов волка бесплантно в хорошем качестве Описание: Молодой подводник обладает редким даром распознавать каждый звук, который он слышит. От его «Золотого уха» зависят судьбы людей, ... 10 10 2
Торрент: Зарегистрирован [2019-07-22 09:00] · скачан: 32 раз
Статус: √ проверено
Размер: 65.11 GB
Как cкачать? Как скачать Зов волка через торрент | UTorrent

% Раздел Тема Автор DL S | L
Фильмы 2019-2020 [DVDrip, WEB-DLRip, HDrip] (DUB, MVO) [ 1.45 GB ] Зов волка / Le chant du loup | iTunes | BDRip bober100 Скачать
1 | 0
Фильмы [HD 720p, 1080p] (Хороший звук DUB, MVO) [ 5.7 GB ] Зов волка / Le chant du loup | iTunes | 720p bober100 Скачать
1 | 0
Фильмы 2019-2020 [DVDrip, WEB-DLRip, HDrip] (DUB, MVO) [ 2.13 GB ] Зов волка / Le chant du loup | iTunes | BDRip bober100 Скачать
1 | 0
Фильмы [HD 720p, 1080p] (Хороший звук DUB, MVO) [ 10.62 GB ] Зов волка / Le chant du loup | iTunes | 1080p bober100 Скачать
1 | 0
Ultra HD (UHD: 2K, 4K, 8K) [ 13.53 GB ] Зов волка / Le chant du loup | MVO | 2160p sheker187 Скачать
1 | 0
Фильмы (Blu-ray, BD-Remux, HDDVD) [ 31.78 GB ] Зов волка / Le chant du loup | MVO | BD Remux 1080p bober100 Скачать
1 | 0

28-11-2019 20:33  


Отключить вcю реклaмy на сайте, в т.ч. и в плеере онлайн просмотра!

    Дорогой пользователь! Огромная просьба, поблагодарите релизера, оцените раздачу и оставьте свои комментарий, если Вы скачали Зов волка через торрент бесплатно!!
    Комментировать посты могут только пользователи прошедшие не сложную регистрацию
    Показать сообщения:    


    Зов волка через торрент
    Скачать бесплатно Зов волка
    Зов волка скачать торрент
    Зов волка смотреть онлайн
    Cкачать фильм Зов волка бесплатно
    Зов волка скачать торрент в хорошем качестве
    Зов волка смотреть онлайн бесплатно в хорошем качестве
    Вы не можете начинать темы
    Вы не можете отвечать на сообщения
    Вы не можете редактировать свои сообщения
    Вы не можете удалять свои сообщения
    Вы не можете голосовать в опросах
    Вы не можете прикреплять файлы к сообщениям
    Вы можете скачивать файлы
    Зов волка / Le chant du loup [2019, боевик, драма, военный, UHD BDRemux 2160p] MVO [СВ Студия] смотреть онлайн, скачать торрент picoco.icu