Доктор Стрэндж

Лицензия

Добыча

Дубляж

Дом дракона

1 сезон

Тор

Дубляж

В эфире

Дубляж

Там, где раки поют

MVO

Властелин колец

1 сезон

Ultimate

pack

Рекомендуем

30

Пиратка

ВАЖНО

ВАЖНО

Ghostwire

Пиратка

jed

RePack

nioh2

RePack

RDR2

RePack

NEED FOR SPEED™ PAYBACK

RePack

скачать торрент

Кинопоиск HD

Острые козырьки 6 сезон

6 сезон

FAR CRY 6

RePack

скачать торрент

Лицензия

скачать торрент

MVO

1

1 сезон

скачать торрент

1 сезон

скачать торрент

Лицензия

  

Незваный гость / The Intruder (Деон Тейлор) [2019, ужасы, триллер, драма, детектив, HDRip, Профессиональный многоголосый "Лицензия BD EUR"]

Незваный гость через торрент piratbit.org

Размер: 702 MB | Добавлен: 3 года 4 мес. назад | Торрент скачан:59 раз
Смотреть онлайн | Скачать   

22-07-2019 18:38 Незваный гость Скачать торрент  

Незваный гость / The Intruder
Год выпуска: 2019
Страна: США / Screen Gems, Hidden Empire Film Group, Primary Wave Entertainment
Жанр: ужасы, триллер, драма, детектив
Продолжительность: 01:42:00
Перевод: Профессиональный многоголосый (Лицензия BD EUR)
Субтитры: русские форсированные - вшитые

Режиссер: Деон Тейлор

rating


В ролях: Деннис Куэйд, Миган Гуд, Джозеф Сикора, Майкл Или, Альвина Аугуст, Лили Сепе, Дебс Ховард, Ли Шортен, Курт Эванс, Кэролин Андерсон

Описание: Молодая пара покупает большой дом, но вскоре выясняется, что прежний владелец не желает с ним расставаться.

Качество: HDRip
Формат: AVI
Видео кодек: XviD
Аудио кодек: MP3
Видео: 672x280 (2.40:1), 23.976 fps, XviD build 50 ~825 kbps avg, 0.18 bit/pixel
Аудио: 48 kHz, MPEG Layer 3, 2 ch, ~128.00 kbps avg
скриншот   скриншот   скриншот   скриншот   скриншот   скриншот   скриншот   скриншот  

Общее
Полное имя : F:\ФИЛЬМЫ\ Незваный гость.2019.HDRip.avi
Формат : AVI
Формат/Информация : Audio Video Interleave
Размер файла : 702 Мбайт
Продолжительность : 1 ч. 42 м.
Общий поток : 963 Кбит/сек
Программа кодирования : VirtualDubMod 1.5.10.3 | www.virtualdub-fr.org || (build 2550/release)
Библиотека кодирования : VirtualDubMod build 2550/release

Видео
Идентификатор : 0
Формат : MPEG-4 Visual
Профиль формата : Advanced Simple@L5
Настройки формата : BVOP3 / GMC3 / QPel
Параметр BVOP формата : 3
Параметр QPel формата : Да
Параметр GMC формата : 3 точки перехода
Параметр матрицы формата : Default (MPEG)
Идентификатор кодека : XVID
Идентификатор кодека/Подсказка : XviD
Продолжительность : 1 ч. 42 м.
Битрейт : 825 Кбит/сек
Ширина : 672 пикселя
Высота : 280 пикселей
Соотношение сторон : 2,40:1
Частота кадров : 23,976 (24000/1001) кадра/сек
Цветовое пространство : YUV
Субдискретизация насыщенности : 4:2:0
Битовая глубина : 8 бит
Тип развёртки : Прогрессивная
Метод сжатия : С потерями
Бит/(Пиксели*Кадры) : 0.183
Размер потока : 602 Мбайт (86%)
Библиотека кодирования : XviD 1.2.1 (UTC 2008-12-04)

Аудио
Идентификатор : 1
Формат : MPEG Audio
Версия формата : Version 1
Профиль формата : Layer 3
Настройки формата : Joint stereo / MS Stereo
Идентификатор кодека : 55
Идентификатор кодека/Подсказка : MP3
Продолжительность : 1 ч. 42 м.
Вид битрейта : Постоянный
Битрейт : 128 Кбит/сек
Каналы : 2 канала
Частота : 48,0 КГц
Частота кадров : 41,667 кадра/сек (1152 SPF)
Метод сжатия : С потерями
Размер потока : 93,4 Мбайт (13%)
Выравнивание : Соединение по промежуткам
Продолжительность промежутка : 42 мс. (1,00 видеокадр)
Время предзагрузки промежутка : 504 мс.
Библиотека кодирования : LAME3.99r
Настройки программы : -m j -V 4 -q 2 -lowpass 17 -b 128




Скачать Незваный гость через торрент https://pic1.kartinco.top/images/12/7eqne.jpg Скачать, смотреть онлайн Незваный гость бесплантно в хорошем качестве Описание: Молодая пара покупает большой дом, но вскоре выясняется, что прежний владелец не желает с ним ... 5 10 1
Торрент: Зарегистрирован [2019-07-22 18:38] · скачан: 59 раз
Статус: √ проверено
Размер: 702 MB
Как cкачать? Как скачать Незваный гость через торрент | UTorrent

% Раздел Тема Автор DL S | L
Фильмы [HD 720p, 1080p] (Хороший звук DUB, MVO) [ 4.07 GB ] Незваный гость / The Intruder | Лицензия | 720p bober100 Скачать
1 | 0
Фильмы [HD 720p, 1080p] (Хороший звук DUB, MVO) [ 8.03 GB ] Незваный гость / The Intruder | Лицензия | 1080p bober100 Скачать
1 | 0
Фильмы [HD 720p, 1080p] (Хороший звук DUB, MVO) [ 32.42 GB ] Незваный гость / The Intruder | Лицензия | 1080p bober100 Скачать
1 | 0
Фильмы 2019-2020 [DVDrip, WEB-DLRip, HDrip] (DUB, MVO) [ 1.92 GB ] Незваный гость / The Intruder | Лицензия | BDRip-AVC bober100 Скачать
1 | 0
Фильмы 2019-2020 [DVDrip, WEB-DLRip, HDrip] (DUB, MVO) [ 1.46 GB ] Незваный гость / The Intruder | Лицензия | BDRip Twi7ter Скачать
3 | 0
Фильмы 2019-2020 [DVDrip, WEB-DLRip, HDrip] (DUB, MVO) [ 1.46 GB ] Незваный гость / The Intruder | Лицензия | HDRip killermax2013 Скачать
1 | 0
Фильмы (Blu-ray, BD-Remux, HDDVD) [ 19.78 GB ] Незваный гость / The Intruder | Лицензия | 1080p killermax2013 Скачать
1 | 0

28-11-2019 20:33  


Отключить вcю реклaмy на сайте, в т.ч. и в плеере онлайн просмотра!

    Дорогой пользователь! Огромная просьба, поблагодарите релизера, оцените раздачу и оставьте свои комментарий, если Вы скачали Незваный гость через торрент бесплатно!!
    Комментировать посты могут только пользователи прошедшие не сложную регистрацию
    Показать сообщения:    


    Незваный гость через торрент
    Скачать бесплатно Незваный гость
    Незваный гость скачать торрент
    Незваный гость смотреть онлайн
    Cкачать фильм Незваный гость бесплатно
    Незваный гость скачать торрент в хорошем качестве
    Незваный гость смотреть онлайн бесплатно в хорошем качестве
    Вы не можете начинать темы
    Вы не можете отвечать на сообщения
    Вы не можете редактировать свои сообщения
    Вы не можете удалять свои сообщения
    Вы не можете голосовать в опросах
    Вы не можете прикреплять файлы к сообщениям
    Вы можете скачивать файлы
    Незваный гость / The Intruder [2019, ужасы, триллер, драма, детектив, HDRip, Профессиональный многоголосый "Лицензия BD EUR"] смотреть онлайн, скачать торрент picoco.icu