Ссылка на приватное зеркало нашего сайта всего за 1$. Внимание количество ограничено!!!

2 сезон

iTunes

1 сезон

1

iTunes

iTunes

iTunes

1 сезон

RePack

30

ИГРА 18+

pack

ВАЖНО

!!Акция!!

Alien_RageХит недели

RePack

MK11
pack

Забери бонус

RePack

jed

!!Акция!!

Alien_Rage

RePack

fifa19

RePack

Assassins Creed: Odyssey

RePack

NEED FOR SPEED™ PAYBACK

4 сезон

9 сезон

Бесстыжие 9 сезон

Все сериалы

все сериалы на PB.wtf

RePack

FAR CRY 5
  

На юг / Goin' South (Джек Николсон) [1978, комедия, вестерн, WEB-DLRip 720p] 2xMVO + DVO + AVO - KORSAR piratbit.org

На юг через торрент piratbit.org

Раздают: 1 [ 0 KB/s ]
Размер: 5.35 GB | Добавлен: 1 мес. 24 д. назад | Торрент скачан:8 раз
Скачать  

22-07-2019 20:06 На юг Скачать торрент  

На юг / Goin' South
Год выпуска: 1978
Страна: США
Жанр: Комедия, вестерн
Продолжительность: 01:48:33
Перевод: Профессиональный многоголосый, профессиональный двухголосый, авторский одноголосый
Субтитры: Английские
Режиссёр: Джек Николсон
В ролях: Джек Николсон, Мэри Стинберген, Кристофер Ллойд, Джон Белуши, Ричард Брэдфорд, Вероника Картрайт, Джеф Моррис, Дэнни ДеВито, Трейси Уолтер, Джералд Х. Рейнольдс
Описание: Уголовник-неудачник Генри Мун был пойман отрядом охотников за преступниками и приговорен к повешенью. Суровые законы Дикого Запада не оставляли бедолаге Генри надежды на помилование, и страшный час казни был уже близок. Существовала лишь одна, самая невероятная возможность: в те времена обреченного на смерть могла спасти лишь… незамужняя женщина! Эта женщина должна была пообещать суду взять злодея «на поруки» и, что самое главное, выйти за него замуж!

rating

Качество: WEB-DLRip 720p
Формат: MKV
Видео: MPEG-4 AVC, 6057 Кбит/сек, 1280x720, 23.976 кадра/сек
Аудио 1: AC3, 2 ch, 192 Кбит/сек | Русский, MVO, СТС
Аудио 2: AC3, 2 ch, 192 Кбит/сек | Русский, MVO, Paramount Channel
Аудио 3: AC3, 2 ch, 192 Кбит/сек | Русский, DVO, Премьер
Аудио 4: AC3, 2 ch, 192 Кбит/сек | Русский, AVO, Юрий Живов
Аудио 5: EAC3, 2 ch, 224 Кбит/сек | Английский, Оригинал

Релиз от:


• Исходник видео WEB-DL Amazon STARZ - периодически появляется логотип
• x264 [info]: frame I:806 Avg QP:15.34 size: 133244
• x264 [info]: frame P:34428 Avg QP:18.09 size: 53333
• x264 [info]: frame B:120916 Avg QP:19.66 size: 24892

============================================

Общее
Уникальный идентификатор : 177428482130439938868373591314507195711 (0x857B7B9068133BBF82491FB8E4AF653F)
Полное имя : На.юг.1978.WEB-DLRip.720p.KORSAR.mkv
Формат : Matroska
Версия формата : Version 2
Размер файла : 5,35 Гбайт
Продолжительность : 1 ч. 48 м.
Общий поток : 7052 Кбит/сек
Дата кодирования : UTC 2017-08-19 12:18:18
Программа кодирования : mkvmerge v5.8.0 ('No Sleep / Pillow') built on Sep 2 2012 15:37:04
Библиотека кодирования : libebml v1.2.3 + libmatroska v1.3.0

Видео
Идентификатор : 1
Формат : AVC
Формат/Информация : Advanced Video Codec
Профиль формата : High@L4.1
Параметр CABAC формата : Да
Параметр ReFrames формата : 9 кадров
Идентификатор кодека : V_MPEG4/ISO/AVC
Продолжительность : 1 ч. 48 м.
Битрейт : 6057 Кбит/сек
Ширина : 1280 пикселей
Высота : 720 пикселей
Соотношение сторон : 16:9
Режим частоты кадров : Постоянный
Частота кадров : 23,976 (24000/1001) кадра/сек
Цветовое пространство : YUV
Субдискретизация насыщенности : 4:2:0
Битовая глубина : 8 бит
Тип развёртки : Прогрессивная
Бит/(Пиксели*Кадры) : 0.274
Размер потока : 4,49 Гбайт (84%)
Заголовок : RIP | MZMA
Библиотека кодирования : x264 core 148 r2638 7599210
Настройки программы : cabac=1 / ref=9 / deblock=1:-2:-2 / analyse=0x3:0x113 / me=umh / subme=11 / psy=1 / psy_rd=1.00:0.00 / mixed_ref=1 / me_range=48 / chroma_me=1 / trellis=2 / 8x8dct=1 / cqm=0 / deadzone=21,11 / fast_pskip=0 / chroma_qp_offset=-2 / threads=6 / lookahead_threads=1 / sliced_threads=0 / nr=0 / decimate=0 / interlaced=0 / bluray_compat=0 / constrained_intra=0 / bframes=16 / b_pyramid=2 / b_adapt=2 / b_bias=0 / direct=3 / weightb=1 / open_gop=0 / weightp=2 / keyint=250 / keyint_min=23 / scenecut=40 / intra_refresh=0 / rc_lookahead=60 / rc=2pass / mbtree=1 / bitrate=6057 / ratetol=1.0 / qcomp=0.60 / qpmin=0 / qpmax=69 / qpstep=4 / cplxblur=20.0 / qblur=0.5 / vbv_maxrate=50000 / vbv_bufsize=62500 / nal_hrd=none / filler=0 / ip_ratio=1.40 / aq=1:1.00
Язык : English
Default : Да
Forced : Нет
Цветовой диапазон : Limited
Основные цвета : BT.709
Характеристики трансфера : BT.709
Коэффициенты матрицы : BT.709

Аудио #1
Идентификатор : 2
Формат : AC-3
Формат/Информация : Audio Coding 3
Параметр Endianness формата : Big
Идентификатор кодека : A_AC3
Продолжительность : 1 ч. 48 м.
Вид битрейта : Постоянный
Битрейт : 192 Кбит/сек
Каналы : 2 канала
Расположение каналов : Front: L R
Частота : 48,0 КГц
Частота кадров : 31,250 кадров/сек (1536 spf)
Битовая глубина : 16 бит
Метод сжатия : С потерями
Размер потока : 149 Мбайт (3%)
Заголовок : MVO | СТС
Язык : Russian
Default : Да
Forced : Нет

Аудио #2
Идентификатор : 3
Формат : AC-3
Формат/Информация : Audio Coding 3
Параметр Endianness формата : Big
Идентификатор кодека : A_AC3
Продолжительность : 1 ч. 48 м.
Вид битрейта : Постоянный
Битрейт : 192 Кбит/сек
Каналы : 2 канала
Расположение каналов : Front: L R
Частота : 48,0 КГц
Частота кадров : 31,250 кадров/сек (1536 spf)
Битовая глубина : 16 бит
Метод сжатия : С потерями
Размер потока : 149 Мбайт (3%)
Заголовок : MVO | Paramount Channel
Язык : Russian
Default : Нет
Forced : Нет

Аудио #3
Идентификатор : 4
Формат : AC-3
Формат/Информация : Audio Coding 3
Параметр Endianness формата : Big
Идентификатор кодека : A_AC3
Продолжительность : 1 ч. 48 м.
Вид битрейта : Постоянный
Битрейт : 192 Кбит/сек
Каналы : 2 канала
Расположение каналов : Front: L R
Частота : 48,0 КГц
Частота кадров : 31,250 кадров/сек (1536 spf)
Битовая глубина : 16 бит
Метод сжатия : С потерями
Размер потока : 149 Мбайт (3%)
Заголовок : DVO | Премьер
Язык : Russian
Default : Нет
Forced : Нет

Аудио #4
Идентификатор : 5
Формат : AC-3
Формат/Информация : Audio Coding 3
Параметр Endianness формата : Big
Идентификатор кодека : A_AC3
Продолжительность : 1 ч. 48 м.
Вид битрейта : Постоянный
Битрейт : 192 Кбит/сек
Каналы : 2 канала
Расположение каналов : Front: L R
Частота : 48,0 КГц
Частота кадров : 31,250 кадров/сек (1536 spf)
Битовая глубина : 16 бит
Метод сжатия : С потерями
Размер потока : 149 Мбайт (3%)
Заголовок : AVO | Ю. Живов
Язык : Russian
Default : Нет
Forced : Нет

Аудио #5
Идентификатор : 6
Формат : E-AC-3
Формат/Информация : Enhanced Audio Coding 3
Параметр Endianness формата : Big
Идентификатор кодека : A_EAC3
Продолжительность : 1 ч. 48 м.
Вид битрейта : Постоянный
Битрейт : 224 Кбит/сек
Каналы : 2 канала
Расположение каналов : Front: L R
Частота : 48,0 КГц
Частота кадров : 187,500 кадров/сек (256 spf)
Метод сжатия : С потерями
Задержка видео : 16 мс.
Размер потока : 174 Мбайт (3%)
Заголовок : Original
Язык : English
Default : Нет
Forced : Нет

Текст #1
Идентификатор : 7
Формат : UTF-8
Идентификатор кодека : S_TEXT/UTF8
Идентификатор кодека/Информация : UTF-8 Plain Text
Язык : English
Default : Нет
Forced : Нет

Текст #2
Идентификатор : 8
Формат : UTF-8
Идентификатор кодека : S_TEXT/UTF8
Идентификатор кодека/Информация : UTF-8 Plain Text
Заголовок : SDH
Язык : English
Default : Нет
Forced : Нет

Меню
00:00:00.000 : en:Chapter 01
00:10:10.640 : en:Chapter 02
00:20:02.773 : en:Chapter 03
00:31:06.353 : en:Chapter 04
00:40:23.368 : en:Chapter 05
00:48:30.729 : en:Chapter 06
00:56:01.471 : en:Chapter 07
01:04:31.898 : en:Chapter 08
01:14:39.088 : en:Chapter 09
01:22:20.924 : en:Chapter 10
01:33:56.911 : en:Chapter 11
01:41:23.316 : en:Chapter 12
piratbit.org



Скачать На юг через торрент https://i1.imageban.ru/out/2019/07/22/d6e2bdab92930fec3bf68dfacbd9e5a6.png Скачать фильм На юг через торрент бесплантно в хорошем качестве Описание: Уголовник-неудачник Генри Мун был пойман отрядом охотников за преступниками и приговорен к повешенью. Суровые законы Дикого ... 10 10 1
Info! Золотая раздача, скачанное не засчитывается.
Торрент: Зарегистрирован [2020-09-05 00:21] · скачан: 8 раз
Статус: √ проверено
Размер: 5.35 GB
Как cкачать? Как скачать На юг через торрент | qTorrent

28-11-2019 20:33  

Отключить всю рекламу на сайте

    Дорогой пользователь! Огромная просьба, поблагодарите релизера, оцените раздачу и оставьте свои комментарий, если Вы скачали На юг через торрент бесплатно! Внесите свою лепту в развитие PiratBit!
    Комментировать посты могут только пользователи прошедшие не сложную регистрацию
    Показать сообщения:    

    На юг через торрент
    Скачать бесплатно На юг
    На юг скачать торрент
    На юг смотреть онлайн
    Cкачать фильм На юг бесплатно
    На юг скачать торрент в хорошем качестве
    На юг смотреть онлайн бесплатно в хорошем качестве


    Вы не можете начинать темы
    Вы не можете отвечать на сообщения
    Вы не можете редактировать свои сообщения
    Вы не можете удалять свои сообщения
    Вы не можете голосовать в опросах
    Вы не можете прикреплять файлы к сообщениям
    Вы можете скачивать файлы