Достать ножи: Стеклянная луковица

MVO

Добыча

Дубляж

Уэнсдэй

1 сезон

Тор

Дубляж

13 клиническая

1 сезон

Жестокая ночь

MVO

Одни из нас

1 сезон

Deluxe

pack

Рекомендуем

30

Пиратка

ВАЖНО

ВАЖНО

Ghostwire

Пиратка

jed

RePack

nioh2

RePack

RDR2

RePack

NEED FOR SPEED™ PAYBACK

RePack

скачать торрент

Кинопоиск HD

Острые козырьки 6 сезон

6 сезон

FAR CRY 6

RePack

скачать торрент

Лицензия

скачать торрент

MVO

1

1 сезон

скачать торрент

1 сезон

скачать торрент

Лицензия

  

Kingsman: Золотое кольцо / Kingsman: The Golden Circle (Мэттью Вон) [2017, боевик, комедия, приключения, UHD BDRemux 2160p] Дубляж [Лицензия] + 4xAVO

Kingsman: Золотое кольцо через торрент piratbit.org

Размер: 67.46 GB | Добавлен: 3 года 6 мес. назад | Торрент скачан:50 раз
Смотреть онлайн | Скачать | Поддержите нас   

25-07-2019 10:13 Kingsman: Золотое кольцо Скачать торрент  

Kingsman: Золотое кольцо / Kingsman: The Golden Circle««Reports of my death have been greatly exaggerated»»

Год выпуска: 2017
Страна: Великобритания, США
Жанр: боевик, комедия, приключения
Продолжительность: 02:21:02
Перевод: Дублированный, авторский
Субтитры: русские (forced, full), английские (forced, full, SDH)

Режиссер: Мэттью Вон
В ролях:

Тэрон Эджертон (Eggsy), Колин Фёрт (Harry Hart), Марк Стронг (Merlin), Джулианна Мур (Poppy), Холли Берри (Ginger), Педро Паскаль (Whiskey), Ченнинг Татум (Tequila), Джефф Бриджес (Champ), Эдвард Холкрофт (Charlie), Ханна Альстрём (Princess Tilde), Гордон Александр (Kingsman Cab Driver), Кэлвин Демба (Brandon)
Описание:
Когда штаб-квартиры секретной службы Kingsman уничтожены, и весь мир оказался в заложниках у неизвестных, британские суперагенты обнаруживают, что в один день вместе с их организацией была еще создана американская разведка - Statesman. Теперь эти две элитные спецслужбы должны объединиться и бросить вызов общему безжалостному врагу, чтобы спасти мир, то есть заняться тем, что для Эггси становится обычным делом...
Рейтинг:

MPAA: R - Лицам до 17 лет обязательно присутствие взрослого
Качество: UHD BDRemux 2160p
Формат: MKV
Видео: MPEG-H HEVC Video / 36003 kbps / 3840x2160 / 23.976 fps / 16:9 / Main 10 Profile 5.1 High / 4:2:0 / 10 bits / HDR / BT.2020 /
Аудио 1: Russian DTS / 5.1 / 48 kHz / 768 kbps / 24-bit |Дубляж, Blu-Ray|
Аудио 2: Russian DTS-HD Master Audio / 7.1 / 48 kHz / 5119 kbps / 24-bit (DTS Core: 5.1 / 48 kHz / 1509 kbps / 24-bit) |Дубляж, Custom|
Аудио 3: Russian DTS-HD Master Audio / 7.1 / 48 kHz / 5179 kbps / 24-bit (DTS Core: 5.1 / 48 kHz / 1509 kbps / 24-bit) |Ю. Живов|
Аудио 4: Russian DTS-HD Master Audio / 7.1 / 48 kHz / 5034 kbps / 24-bit (DTS Core: 5.1 / 48 kHz / 1509 kbps / 24-bit) |Ю. Сербин|
Аудио 5: Russian DTS-HD Master Audio / 7.1 / 48 kHz / 5065 kbps / 24-bit (DTS Core: 5.1 / 48 kHz / 1509 kbps / 24-bit) |Л. Володарский|
Аудио 6: Russian DTS-HD Master Audio / 7.1 / 48 kHz / 5172 kbps / 24-bit (DTS Core: 5.1 / 48 kHz / 1509 kbps / 24-bit) |М. Чадов|
Аудио 7: English Dolby Atmos/TrueHD Audio / 7.1-Atmos / 48 kHz / 6061 kbps / 24-bit |original|
Аудио 8: English AC3 Core: 5.1 / 48 kHz / 640 kbps |original|
Навигация по главам: есть

Перевод М. Чадова доступен благодаря: braindrill1, Avatar-Lion, miklob, mestereo2110, vovan_vvs, pochiOo, Pavletto, ikstu, ziox
Работа со звуком: Переводман
Общее
Уникальный идентификатор : 278919282977975435343880044919927568220 (0xD1D5E660DB8CFC54EC6023E9CE87775C)
Полное имя : H:\UHD\Kingsman Золотое кольцо.2017.UHD.BluRay.Remux.2160p.mkv
Формат : Matroska
Версия формата : Version 4
Размер файла : 67,5 Гбайт
Продолжительность : 2 ч. 21 м.
Режим общего битрейта : Переменный
Общий поток : 68,5 Мбит/сек
Дата кодирования : UTC 2019-01-03 19:55:55
Программа кодирования : mkvmerge v29.0.0 ('Like It Or Not') 64-bit
Библиотека кодирования : libebml v1.3.6 + libmatroska v1.4.9
Attachments : poster.jpg

Видео
Идентификатор : 1
Формат : HEVC
Формат/Информация : High Efficiency Video Coding
Коммерческое название : HDR10
Профиль формата : Main 10@L5.1@High
Идентификатор кодека : V_MPEGH/ISO/HEVC
Продолжительность : 2 ч. 21 м.
Битрейт : 36,0 Мбит/сек
Ширина : 3840 пикселей
Высота : 2160 пикселей
Соотношение сторон : 16:9
Режим частоты кадров : Постоянный
Частота кадров : 23,976 (24000/1001) кадра/сек
Цветовое пространство : YUV
Субдискретизация насыщенности : 4:2:0 (Type 2)
Битовая глубина : 10 бит
Бит/(Пиксели*Кадры) : 0.181
Размер потока : 35,5 Гбайт (53%)
Библиотека кодирования : ATEME Titan File 3.8.3 (4.8.3.0)
Default : Да
Forced : Нет
Цветовой диапазон : Limited
Основные цвета : BT.2020
Характеристики трансфера : PQ
Коэффициенты матрицы : BT.2020 non-constant
MasteringDisplay_ColorPrimaries : Display P3
MasteringDisplay_Luminance : min: 0.0050 cd/m2, max: 1000 cd/m2

Аудио #1
Идентификатор : 2
Формат : DTS
Формат/Информация : Digital Theater Systems
Идентификатор кодека : A_DTS
Продолжительность : 2 ч. 21 м.
Вид битрейта : Постоянный
Битрейт : 768 Кбит/сек
Каналы : 6 каналов
Channel layout : C L R Ls Rs LFE
Частота : 48,0 КГц
Частота кадров : 93,750 кадра/сек (512 SPF)
Битовая глубина : 24 бит
Метод сжатия : С потерями
Размер потока : 775 Мбайт (1%)
Заголовок : Дубляж, Blu-Ray
Язык : Russian
Default : Да
Forced : Нет

Аудио #2
Идентификатор : 3
Формат : DTS XLL
Формат/Информация : Digital Theater Systems
Коммерческое название : DTS-HD Master Audio
Идентификатор кодека : A_DTS
Продолжительность : 2 ч. 21 м.
Вид битрейта : Переменный
Битрейт : 5119 Кбит/сек
Каналы : 8 каналов
Channel layout : C L R LFE Lb Rb Lss Rss
Частота : 48,0 КГц
Частота кадров : 93,750 кадра/сек (512 SPF)
Битовая глубина : 24 бит
Метод сжатия : Без потерь
Размер потока : 5,04 Гбайт (7%)
Заголовок : Дубляж, Сustom
Язык : Russian
Default : Нет
Forced : Нет

Аудио #3
Идентификатор : 4
Формат : DTS XLL
Формат/Информация : Digital Theater Systems
Коммерческое название : DTS-HD Master Audio
Идентификатор кодека : A_DTS
Продолжительность : 2 ч. 21 м.
Вид битрейта : Переменный
Битрейт : 5179 Кбит/сек
Каналы : 8 каналов
Channel layout : C L R LFE Lb Rb Lss Rss
Частота : 48,0 КГц
Частота кадров : 93,750 кадра/сек (512 SPF)
Битовая глубина : 24 бит
Метод сжатия : Без потерь
Размер потока : 5,10 Гбайт (8%)
Заголовок : Ю. Живов
Язык : Russian
Default : Нет
Forced : Нет

Аудио #4
Идентификатор : 5
Формат : DTS XLL
Формат/Информация : Digital Theater Systems
Коммерческое название : DTS-HD Master Audio
Идентификатор кодека : A_DTS
Продолжительность : 2 ч. 21 м.
Вид битрейта : Переменный
Битрейт : 5034 Кбит/сек
Каналы : 8 каналов
Channel layout : C L R LFE Lb Rb Lss Rss
Частота : 48,0 КГц
Частота кадров : 93,750 кадра/сек (512 SPF)
Битовая глубина : 24 бит
Метод сжатия : Без потерь
Размер потока : 4,96 Гбайт (7%)
Заголовок : Ю. Сербин
Язык : Russian
Default : Нет
Forced : Нет

Аудио #5
Идентификатор : 6
Формат : DTS XLL
Формат/Информация : Digital Theater Systems
Коммерческое название : DTS-HD Master Audio
Идентификатор кодека : A_DTS
Продолжительность : 2 ч. 21 м.
Вид битрейта : Переменный
Битрейт : 5065 Кбит/сек
Каналы : 8 каналов
Channel layout : C L R LFE Lb Rb Lss Rss
Частота : 48,0 КГц
Частота кадров : 93,750 кадра/сек (512 SPF)
Битовая глубина : 24 бит
Метод сжатия : Без потерь
Размер потока : 4,99 Гбайт (7%)
Заголовок : Л. Володарский
Язык : Russian
Default : Нет
Forced : Нет

Аудио #6
Идентификатор : 7
Формат : DTS XLL
Формат/Информация : Digital Theater Systems
Коммерческое название : DTS-HD Master Audio
Идентификатор кодека : A_DTS
Продолжительность : 2 ч. 21 м.
Вид битрейта : Переменный
Битрейт : 5172 Кбит/сек
Каналы : 8 каналов
Channel layout : C L R LFE Lb Rb Lss Rss
Частота : 48,0 КГц
Частота кадров : 93,750 кадра/сек (512 SPF)
Битовая глубина : 24 бит
Метод сжатия : Без потерь
Размер потока : 5,10 Гбайт (8%)
Заголовок : М. Чадов
Язык : Russian
Default : Нет
Forced : Нет

Аудио #7
Идентификатор : 8
Формат : MLP FBA 16-ch
Формат/Информация : Meridian Lossless Packing FBA with 16-channel presentation
Коммерческое название : Dolby TrueHD with Dolby Atmos
Идентификатор кодека : A_TRUEHD
Продолжительность : 2 ч. 21 м.
Вид битрейта : Переменный
Битрейт : 5421 Кбит/сек
Максимальный битрейт : 9927 Кбит/сек
Каналы : 8 каналов
Channel layout : L R C LFE Ls Rs Lb Rb
Частота : 48,0 КГц
Частота кадров : 1200,000 кадров/сек (40 SPF)
Метод сжатия : Без потерь
Размер потока : 5,34 Гбайт (8%)
Язык : English
Default : Нет
Forced : Нет
Number of dynamic objects : 13
Bed channel count : 1 канал
Bed channel configuration : LFE

Аудио #8
Идентификатор : 9
Формат : AC-3
Формат/Информация : Audio Coding 3
Коммерческое название : Dolby Digital
Идентификатор кодека : A_AC3
Продолжительность : 2 ч. 21 м.
Вид битрейта : Постоянный
Битрейт : 640 Кбит/сек
Каналы : 6 каналов
Channel layout : L R C LFE Ls Rs
Частота : 48,0 КГц
Частота кадров : 31,250 кадров/сек (1536 SPF)
Битовая глубина : 16 бит
Метод сжатия : С потерями
Размер потока : 646 Мбайт (1%)
Язык : English
ServiceKind/String : Complete Main
Default : Нет
Forced : Нет

Текст #1
Идентификатор : 10
Формат : UTF-8
Идентификатор кодека : S_TEXT/UTF8
Идентификатор кодека/Информация : UTF-8 Plain Text
Продолжительность : 2 ч. 19 м.
Битрейт : 0 бит/сек
ElementCount : 14
Размер потока : 418 байт (0%)
Заголовок : forced
Язык : Russian
Default : Да
Forced : Нет

Текст #2
Идентификатор : 11
Формат : UTF-8
Идентификатор кодека : S_TEXT/UTF8
Идентификатор кодека/Информация : UTF-8 Plain Text
Продолжительность : 2 ч. 19 м.
Битрейт : 81 бит/сек
ElementCount : 1687
Размер потока : 83,4 Кбайт (0%)
Заголовок : full
Язык : Russian
Default : Нет
Forced : Нет

Текст #3
Идентификатор : 12
Формат : UTF-8
Идентификатор кодека : S_TEXT/UTF8
Идентификатор кодека/Информация : UTF-8 Plain Text
Продолжительность : 1 ч. 0 м.
Битрейт : 0 бит/сек
ElementCount : 6
Размер потока : 125 байт (0%)
Заголовок : forced
Язык : English
Default : Нет
Forced : Нет

Текст #4
Идентификатор : 13
Формат : UTF-8
Идентификатор кодека : S_TEXT/UTF8
Идентификатор кодека/Информация : UTF-8 Plain Text
Продолжительность : 2 ч. 13 м.
Битрейт : 55 бит/сек
ElementCount : 1882
Размер потока : 53,9 Кбайт (0%)
Заголовок : full
Язык : English
Default : Нет
Forced : Нет

Текст #5
Идентификатор : 14
Формат : UTF-8
Идентификатор кодека : S_TEXT/UTF8
Идентификатор кодека/Информация : UTF-8 Plain Text
Продолжительность : 2 ч. 13 м.
Битрейт : 60 бит/сек
ElementCount : 2142
Размер потока : 58,7 Кбайт (0%)
Заголовок : SDH
Язык : English
Default : Нет
Forced : Нет

Меню
00:00:00.000 : en:Chapter 1
00:04:51.958 : en:Chapter 2
00:09:39.454 : en:Chapter 3
00:13:36.607 : en:Chapter 4
00:18:54.300 : en:Chapter 5
00:24:57.287 : en:Chapter 6
00:28:43.347 : en:Chapter 7
00:32:52.304 : en:Chapter 8
00:39:18.731 : en:Chapter 9
00:43:21.849 : en:Chapter 10
00:48:26.570 : en:Chapter 11
00:53:54.106 : en:Chapter 12
00:58:31.258 : en:Chapter 13
01:05:04.901 : en:Chapter 14
01:09:52.522 : en:Chapter 15
01:13:34.744 : en:Chapter 16
01:19:41.860 : en:Chapter 17
01:23:45.103 : en:Chapter 18
01:28:55.288 : en:Chapter 19
01:33:25.225 : en:Chapter 20
01:40:14.759 : en:Chapter 21
01:45:03.255 : en:Chapter 22
01:49:38.489 : en:Chapter 23
01:55:15.992 : en:Chapter 24
02:01:40.835 : en:Chapter 25
02:05:44.036 : en:Chapter 26
02:12:36.407 : en:Chapter 27
02:15:15.274 : en:Chapter 28



Скачать Kingsman: Золотое кольцо через торрент https://b.radikal.ru/b17/1907/96/e496d0e978c0.png Скачать, смотреть онлайн Kingsman: Золотое кольцо бесплантно в хорошем качестве Описание: Когда штаб-квартиры секретной службы Kingsman уничтожены, и весь мир оказался в заложниках у неизвестных, британские суперагенты ... 10 10 3
Торрент: Зарегистрирован [2019-07-25 10:13] · скачан: 50 раз
Статус: √ проверено
Размер: 67.46 GB
Как cкачать? Как скачать Kingsman: Золотое кольцо через торрент | UTorrent

% Раздел Тема Автор DL S | L
Фильмы (Blu-ray, BD-Remux, HDDVD) [ 47.83 GB ] Kingsman: Золотое кольцо / Kingsman: The Golden Circle | Лицензия | BD Remux 1080p bober100 Скачать
1 | 0

28-11-2019 20:33  


Отключить вcю реклaмy на сайте, в т.ч. и в плеере онлайн просмотра!

    Дорогой пользователь! Огромная просьба, поблагодарите релизера, оцените раздачу и оставьте свои комментарий, если Вы скачали Kingsman: Золотое кольцо через торрент бесплатно!!
    Комментировать посты могут только пользователи прошедшие не сложную регистрацию
    Показать сообщения:    


    Kingsman: Золотое кольцо через торрент
    Скачать бесплатно Kingsman: Золотое кольцо
    Kingsman: Золотое кольцо скачать торрент
    Kingsman: Золотое кольцо смотреть онлайн
    Cкачать фильм Kingsman: Золотое кольцо бесплатно
    Kingsman: Золотое кольцо скачать торрент в хорошем качестве
    Kingsman: Золотое кольцо смотреть онлайн бесплатно в хорошем качестве
    Вы не можете начинать темы
    Вы не можете отвечать на сообщения
    Вы не можете редактировать свои сообщения
    Вы не можете удалять свои сообщения
    Вы не можете голосовать в опросах
    Вы не можете прикреплять файлы к сообщениям
    Вы можете скачивать файлы
    Kingsman: Золотое кольцо / Kingsman: The Golden Circle [2017, боевик, комедия, приключения, UHD BDRemux 2160p] Дубляж [Лицензия] + 4xAVO смотреть онлайн, скачать торрент picoco.icu