Достать ножи: Стеклянная луковица

MVO

Добыча

Дубляж

Уэнсдэй

1 сезон

Тор

Дубляж

13 клиническая

1 сезон

Жестокая ночь

MVO

Одни из нас

1 сезон

Deluxe

pack

Рекомендуем

30

Пиратка

ВАЖНО

ВАЖНО

Ghostwire

Пиратка

jed

RePack

nioh2

RePack

RDR2

RePack

NEED FOR SPEED™ PAYBACK

RePack

скачать торрент

Кинопоиск HD

Острые козырьки 6 сезон

6 сезон

FAR CRY 6

RePack

скачать торрент

Лицензия

скачать торрент

MVO

1

1 сезон

скачать торрент

1 сезон

скачать торрент

Лицензия

  

Мстители: Война бесконечности / Avengers: Infinity War (Энтони Руссо, Джо Руссо) [2018, фантастика, фэнтези, боевик, UHD BDRemux 2160p] Дубляж [Лицензия] + AVO

Мстители: Война бесконечности через торрент piratbit.org

Качают: 3 [ 0 KB/s ]
Размер: 59.35 GB | Добавлен: 3 года 6 мес. назад | Торрент скачан:249 раз
Смотреть онлайн | Скачать | Поддержите нас   

25-07-2019 15:53 Мстители: Война бесконечности Скачать торрент  

Мстители: Война бесконечности / Avengers: Infinity War

Год выпуска: 2018
Страна: США
Жанр: фантастика, фэнтези, боевик, приключения
Продолжительность: 02:29:21
Перевод: Дублированный, авторский
Субтитры: русские (forced, full, Commentary), английские (forced, full, SDH, Commentary)
Режиссер: Энтони Руссо, Джо Руссо

В ролях:

Роберт Дауни мл. (Tony Stark / Iron Man), Крис Хемсворт (Thor), Марк Руффало (Bruce Banner / Hulk), Крис Эванс (Steve Rogers / Captain America), Скарлетт Йоханссон (Natasha Romanoff / Black Widow), Дон Чидл (James Rhodes / War Machine), Бенедикт Камбербэтч (Doctor Strange), Том Холланд (Peter Parker / Spider-Man), Чедвик Боузман (T'Challa / Black Panther), Зои Салдана (Gamora), Карен Гиллан (Nebula), Том Хиддлстон (Loki)
Описание:
Пока Мстители и их союзники продолжают защищать мир от различных опасностей, с которыми не смог бы справиться один супергерой, новая угроза возникает из космоса: Танос. Межгалактический тиран преследует цель собрать все шесть Камней Бесконечности - артефакты невероятной силы, с помощью которых можно менять реальность по своему желанию. Всё, с чем Мстители сталкивались ранее, вело к этому моменту - судьба Земли никогда ещё не была столь неопределённой.
Рейтинг:

MPAA: PG-13 - Детям до 13 лет просмотр не желателен
Качество: UHD BDRemux 2160p
Формат: MKV
Видео: MPEG-H HEVC Video / 46039 kbps / 3840x2160 / 23.976 fps / 16:9 / Main 10 Profile 5.1 High / 4:2:0 / 10 bits / HDR / BT.2020 /
Аудио 1: Russian AC3 / 5.1 / 48 kHz / 640 kbps / 16-bit |Дубляж, Blu-Ray|
Аудио 2: Russian DTS-HD Master Audio / 7.1 / 48 kHz / 4900 kbps / 24-bit (DTS Core: 5.1 / 48 kHz / 1509 kbps / 24-bit) |М. Чадов|
Аудио 3: English Dolby Atmos/TrueHD Audio / 7.1-Atmos / 48 kHz / 5174 kbps / 24-bit |original|
Аудио 4: English AC3 Core: 5.1 / 48 kHz / 640 kbps |original|
Аудио 5: English AC3 / 2.0 / 48 kHz / 192 kbps |Commentary by Directors Anthony Russo & Joe Russo and Screenwriters Christopher Markus & Stephen McFeely|
Навигация по главам: есть

Общее
Уникальный идентификатор : 3883719887670106737148534345608279394 (0x2EBFA2C945355B07D6060E156113562)
Полное имя : H:\UHD\Мстители Война бесконечности.2018.UHD.Blu-Ray.Remux.2160p.mkv
Формат : Matroska
Версия формата : Version 4
Размер файла : 59,4 Гбайт
Продолжительность : 2 ч. 29 м.
Режим общего битрейта : Переменный
Общий поток : 56,9 Мбит/сек
Дата кодирования : UTC 2019-01-05 22:19:30
Программа кодирования : mkvmerge v30.1.0 ('Forever And More') 64-bit
Библиотека кодирования : libebml v1.3.6 + libmatroska v1.4.9
Attachments : poster.jpg

Видео
Идентификатор : 1
Формат : HEVC
Формат/Информация : High Efficiency Video Coding
Коммерческое название : HDR10
Профиль формата : Main 10@L5.1@High
Идентификатор кодека : V_MPEGH/ISO/HEVC
Продолжительность : 2 ч. 29 м.
Битрейт : 45,9 Мбит/сек
Ширина : 3840 пикселей
Высота : 2160 пикселей
Соотношение сторон : 16:9
Режим частоты кадров : Постоянный
Частота кадров : 23,976 (24000/1001) кадра/сек
Цветовое пространство : YUV
Субдискретизация насыщенности : 4:2:0 (Type 2)
Битовая глубина : 10 бит
Бит/(Пиксели*Кадры) : 0.231
Размер потока : 47,9 Гбайт (81%)
Библиотека кодирования : ATEME Titan File 3.8.16 (4.8.16.0)
Default : Да
Forced : Нет
Цветовой диапазон : Limited
Основные цвета : BT.2020
Характеристики трансфера : PQ
Коэффициенты матрицы : BT.2020 non-constant
MasteringDisplay_ColorPrimaries : Display P3
MasteringDisplay_Luminance : min: 0.0001 cd/m2, max: 1000 cd/m2

Аудио #1
Идентификатор : 2
Формат : AC-3
Формат/Информация : Audio Coding 3
Коммерческое название : Dolby Digital
Идентификатор кодека : A_AC3
Продолжительность : 2 ч. 29 м.
Вид битрейта : Постоянный
Битрейт : 640 Кбит/сек
Каналы : 6 каналов
Channel layout : L R C LFE Ls Rs
Частота : 48,0 КГц
Частота кадров : 31,250 кадров/сек (1536 SPF)
Битовая глубина : 16 бит
Метод сжатия : С потерями
Размер потока : 684 Мбайт (1%)
Заголовок : Дубляж, Blu-Ray
Язык : Russian
ServiceKind/String : Complete Main
Default : Да
Forced : Нет

Аудио #2
Идентификатор : 3
Формат : DTS XLL
Формат/Информация : Digital Theater Systems
Коммерческое название : DTS-HD Master Audio
Идентификатор кодека : A_DTS
Продолжительность : 2 ч. 29 м.
Вид битрейта : Переменный
Битрейт : 4900 Кбит/сек
Каналы : 8 каналов
Channel layout : C L R LFE Lb Rb Lss Rss
Частота : 48,0 КГц
Частота кадров : 93,750 кадра/сек (512 SPF)
Битовая глубина : 24 бит
Метод сжатия : Без потерь
Размер потока : 5,11 Гбайт (9%)
Заголовок : М. Чадов
Язык : Russian
Default : Нет
Forced : Нет

Аудио #3
Идентификатор : 4
Формат : MLP FBA 16-ch
Формат/Информация : Meridian Lossless Packing FBA with 16-channel presentation
Коммерческое название : Dolby TrueHD with Dolby Atmos
Идентификатор кодека : A_TRUEHD
Продолжительность : 2 ч. 29 м.
Вид битрейта : Переменный
Битрейт : 4534 Кбит/сек
Максимальный битрейт : 6930 Кбит/сек
Каналы : 8 каналов
Channel layout : L R C LFE Ls Rs Lb Rb
Частота : 48,0 КГц
Частота кадров : 1200,000 кадров/сек (40 SPF)
Метод сжатия : Без потерь
Размер потока : 4,73 Гбайт (8%)
Язык : English
Default : Нет
Forced : Нет
Number of dynamic objects : 13
Bed channel count : 1 канал
Bed channel configuration : LFE

Аудио #4
Идентификатор : 5
Формат : AC-3
Формат/Информация : Audio Coding 3
Коммерческое название : Dolby Digital
Идентификатор кодека : A_AC3
Продолжительность : 2 ч. 29 м.
Вид битрейта : Постоянный
Битрейт : 640 Кбит/сек
Каналы : 6 каналов
Channel layout : L R C LFE Ls Rs
Частота : 48,0 КГц
Частота кадров : 31,250 кадров/сек (1536 SPF)
Битовая глубина : 16 бит
Метод сжатия : С потерями
Размер потока : 684 Мбайт (1%)
Язык : English
ServiceKind/String : Complete Main
Default : Нет
Forced : Нет

Аудио #5
Идентификатор : 6
Формат : AC-3
Формат/Информация : Audio Coding 3
Коммерческое название : Dolby Digital
Идентификатор кодека : A_AC3
Продолжительность : 2 ч. 29 м.
Вид битрейта : Постоянный
Битрейт : 192 Кбит/сек
Каналы : 2 канала
Channel layout : L R
Частота : 48,0 КГц
Частота кадров : 31,250 кадров/сек (1536 SPF)
Битовая глубина : 16 бит
Метод сжатия : С потерями
Размер потока : 205 Мбайт (0%)
Заголовок : Commentary by Directors Anthony Russo & Joe Russo and Screenwriters Christopher Markus & Stephen McFeely
Язык : English
ServiceKind/String : Complete Main
Default : Нет
Forced : Нет

Текст #1
Идентификатор : 7
Формат : UTF-8
Идентификатор кодека : S_TEXT/UTF8
Идентификатор кодека/Информация : UTF-8 Plain Text
Продолжительность : 2 ч. 12 м.
Битрейт : 0 бит/сек
ElementCount : 14
Размер потока : 373 байт (0%)
Заголовок : forced
Язык : Russian
Default : Да
Forced : Нет

Текст #2
Идентификатор : 8
Формат : UTF-8
Идентификатор кодека : S_TEXT/UTF8
Идентификатор кодека/Информация : UTF-8 Plain Text
Продолжительность : 2 ч. 28 м.
Битрейт : 64 бит/сек
ElementCount : 1596
Размер потока : 70,4 Кбайт (0%)
Заголовок : full
Язык : Russian
Default : Нет
Forced : Нет

Текст #3
Идентификатор : 9
Формат : UTF-8
Идентификатор кодека : S_TEXT/UTF8
Идентификатор кодека/Информация : UTF-8 Plain Text
Продолжительность : 2 ч. 29 м.
Битрейт : 168 бит/сек
ElementCount : 2885
Размер потока : 184 Кбайт (0%)
Заголовок : Commentary by Directors Anthony Russo & Joe Russo and Screenwriters Christopher Markus & Stephen McFeely
Язык : Russian
Default : Нет
Forced : Нет

Текст #4
Идентификатор : 10
Формат : UTF-8
Идентификатор кодека : S_TEXT/UTF8
Идентификатор кодека/Информация : UTF-8 Plain Text
Продолжительность : 1 с. 126 мс.
Битрейт : 134 бит/сек
ElementCount : 1
Размер потока : 19,0 байт (0%)
Заголовок : forced
Язык : English
Default : Нет
Forced : Нет

Текст #5
Идентификатор : 11
Формат : UTF-8
Идентификатор кодека : S_TEXT/UTF8
Идентификатор кодека/Информация : UTF-8 Plain Text
Продолжительность : 2 ч. 28 м.
Битрейт : 42 бит/сек
ElementCount : 1724
Размер потока : 46,5 Кбайт (0%)
Заголовок : full
Язык : English
Default : Нет
Forced : Нет

Текст #6
Идентификатор : 12
Формат : UTF-8
Идентификатор кодека : S_TEXT/UTF8
Идентификатор кодека/Информация : UTF-8 Plain Text
Продолжительность : 2 ч. 28 м.
Битрейт : 49 бит/сек
ElementCount : 2067
Размер потока : 53,9 Кбайт (0%)
Заголовок : SDH
Язык : English
Default : Нет
Forced : Нет

Текст #7
Идентификатор : 13
Формат : UTF-8
Идентификатор кодека : S_TEXT/UTF8
Идентификатор кодека/Информация : UTF-8 Plain Text
Продолжительность : 2 ч. 29 м.
Битрейт : 136 бит/сек
ElementCount : 3019
Размер потока : 149 Кбайт (0%)
Заголовок : Commentary by Directors Anthony Russo & Joe Russo and Screenwriters Christopher Markus & Stephen McFeely
Язык : English
Default : Нет
Forced : Нет

Меню
00:00:00.000 : en:"Thanos is Coming"
00:11:28.729 : en:Infinity Stones
00:18:13.884 : en:Fight for the Time Stone
00:27:23.808 : en:"Who the Hell are You Guys?"
00:35:48.813 : en:Wanda and Vision
00:42:23.541 : en:Knowhere
00:54:12.874 : en:Avengers Assemble
00:59:36.739 : en:"Take the Fight To Him"
01:05:07.153 : en:The Soul Stone
01:10:53.666 : en:Nidavellir
01:17:06.955 : en:Titan
01:24:14.758 : en:Vormir
01:31:08.004 : en:"Wakanda Forever"
01:42:00.405 : en:Stormbreaker
01:45:57.809 : en:Titan Confrontation
01:53:04.068 : en:"A Vision Situation"
01:58:52.917 : en:The Time Stone
02:03:58.180 : en:The End Game
02:11:13.282 : en:Aftermath
02:17:31.284 : en:End Credits



Скачать Мстители: Война бесконечности через торрент https://d.radikal.ru/d42/1907/b2/07bdfce7be54.png Скачать, смотреть онлайн Мстители: Война бесконечности бесплантно в хорошем качестве Описание: Пока Мстители и их союзники продолжают защищать мир от различных опасностей, с которыми не смог бы справиться один супергерой, ... 10 10 7
Торрент: Зарегистрирован [2019-07-25 15:53] · скачан: 249 раз
Статус: √ проверено
Размер: 59.35 GB
Как cкачать? Как скачать Мстители: Война бесконечности через торрент | UTorrent

% Раздел Тема Автор DL S | L
Фильмы 2018 [DVDrip, WEB-DLRip, HDrip] (DUB, MVO) [ 3.65 GB ] Мстители: Война бесконечности / Avengers: Infinity War | Дубляж BD CEE | BDRip-AVC, Дубляж BD CEE, AVO morfyi Скачать
1 | 0
Фильмы (Blu-ray, BD-Remux, HDDVD) [ 43.47 GB ] Мстители: Война бесконечности / Avengers: Infinity War | DUB | 1080p sheker187 Скачать
1 | 0

28-11-2019 20:33  


Отключить вcю реклaмy на сайте, в т.ч. и в плеере онлайн просмотра!

    Дорогой пользователь! Огромная просьба, поблагодарите релизера, оцените раздачу и оставьте свои комментарий, если Вы скачали Мстители: Война бесконечности через торрент бесплатно!!
    Комментировать посты могут только пользователи прошедшие не сложную регистрацию
    Показать сообщения:    


    Мстители: Война бесконечности через торрент
    Скачать бесплатно Мстители: Война бесконечности
    Мстители: Война бесконечности скачать торрент
    Мстители: Война бесконечности смотреть онлайн
    Cкачать фильм Мстители: Война бесконечности бесплатно
    Мстители: Война бесконечности скачать торрент в хорошем качестве
    Мстители: Война бесконечности смотреть онлайн бесплатно в хорошем качестве
    Вы не можете начинать темы
    Вы не можете отвечать на сообщения
    Вы не можете редактировать свои сообщения
    Вы не можете удалять свои сообщения
    Вы не можете голосовать в опросах
    Вы не можете прикреплять файлы к сообщениям
    Вы можете скачивать файлы
    Мстители: Война бесконечности / Avengers: Infinity War [2018, фантастика, фэнтези, боевик, UHD BDRemux 2160p] Дубляж [Лицензия] + AVO смотреть онлайн, скачать торрент picoco.icu