1 сезон

3 сезон

iTunes

1

iTunes

DUB Netflix

iTunes

13

1 сезон

RePack

30

Deluxe

pack

Легкие деньги

ВАЖНО

ИГРА 18+

pack

RePack

MK11

RePack

jed

RePack

fifa19

RePack

RDR2

RePack

NEED FOR SPEED™ PAYBACK

4 сезон

9 сезон

Бесстыжие 9 сезон

Все сериалы

все сериалы на PB.wtf

RePack

FAR CRY 5

Anonymous, доброй ночи, мы не успеваем до 1 числа собрать деньги на оплату серверов, помогите нам пожалуйста в это трудное время. В качестве благодарности мы отключим Вам всю рекламу на сайте (укажите свой ник в строку Ваше имя)!

×
  
Magnet ссылка

Родители / Сезон: 2 / Серии: 1-20 из 20 (Александр Жигалкин) [2019, комедия, семейный, WEB-DL 720p] piratbit.org

Родители через торрент piratbit.org

Размер: 10.26 GB | Добавлен: 1 год 9 мес. назад | Торрент скачан:21 раз
Скачать  

26-07-2019 01:58 Родители Скачать торрент  

Родители Год выпуска: 2019
Страна: Россия
Жанр: комедия, семейный
Продолжительность: ~ 00:25:00 серия
Субтитры: отсутствуют

Режиссер: Александр Жигалкин



В ролях: Мария Порошина, Александр Самойленко, Александр Самойленко мл., Никита Митасов, Алексей Юрченко, Анастасия Крылова, Аксиния Кортнева

Описание: Прошло пять лет. Все в семье Соколовых подросли и повзрослели, кроме папы. Илья увлёкся киберспортом, Макс — наукой, а Тимофей уехал учиться в Германию. Его возвращение станет для родных сюрпризом — старший сын приезжает с невестой, и она установит свои правила. «РОДИТЕЛИ» — сериал, где есть место не только меткому семейному юмору, но и доле лирики, и даже философии. В общем, настоящее семейное шоу.

Качество: WEB-DL 720p
Формат: MKV

Видео: MPEG-4 AVC, ~ 3 000 Кбит/с, 1280x720
Аудио: AC3 Dolby Digital, 48.0 kHz, 2/0 (L,R) ch, 192 kbps
скриншот  скриншот  скриншот  скриншот  

Общее
Уникальный идентификатор : 225586705750845088970887906554249423987 (0xA9B66B4E7893A6CDA5A0FDE5ACAF2C73)
Полное имя : C:\Родители (Season 02)\01.Родители.2019.WEB-DL. 720p. Files-x.mkv
Формат : Matroska
Версия формата : Version 2
Размер файла : 538 Мбайт
Продолжительность : 23 м. 37 с.
Общий поток : 3182 Кбит/сек
Дата кодирования : UTC 2019-07-26 00:45:40
Программа кодирования : mkvmerge v7.8.0 ('River Man') 32bit built on Apr 3 2015 12:11:22
Библиотека кодирования : libebml v1.3.1 + libmatroska v1.4.2

Видео
Идентификатор : 1
Формат : AVC
Формат/Информация : Advanced Video Codec
Профиль формата : High@L3.1
Параметр CABAC формата : Да
Параметр RefFrames формата : 4 кадра
Идентификатор кодека : V_MPEG4/ISO/AVC
Продолжительность : 23 м. 37 с.
Битрейт : 3000 Кбит/сек
Ширина : 1280 пикселей
Высота : 720 пикселей
Соотношение сторон : 16:9
Режим частоты кадров : Постоянный
Частота кадров : 23,976 (24000/1001) кадра/сек
Цветовое пространство : YUV
Субдискретизация насыщенности : 4:2:0
Битовая глубина : 8 бит
Тип развёртки : Прогрессивная
Бит/(Пиксели*Кадры) : 0.136
Размер потока : 495 Мбайт (92%)
Библиотека кодирования : x264 core 152
Настройки программы : cabac=1 / ref=2 / deblock=1:0:0 / analyse=0x3:0x113 / me=hex / subme=6 / psy=1 / psy_rd=1.00:0.00 / mixed_ref=1 / me_range=16 / chroma_me=1 / trellis=1 / 8x8dct=1 / cqm=0 / deadzone=21,11 / fast_pskip=1 / chroma_qp_offset=-2 / threads=12 / lookahead_threads=2 / sliced_threads=0 / nr=0 / decimate=1 / interlaced=0 / bluray_compat=0 / constrained_intra=0 / bframes=3 / b_pyramid=2 / b_adapt=1 / b_bias=0 / direct=1 / weightb=1 / open_gop=0 / weightp=1 / keyint=120 / keyint_min=48 / scenecut=40 / intra_refresh=0 / rc_lookahead=30 / rc=abr / mbtree=1 / bitrate=3000 / ratetol=1.0 / qcomp=0.60 / qpmin=0 / qpmax=69 / qpstep=4 / vbv_maxrate=3600 / vbv_bufsize=7200 / nal_hrd=none / filler=0 / ip_ratio=1.40 / aq=1:1.00
Default : Да
Forced : Нет

Аудио
Идентификатор : 2
Формат : AC-3
Формат/Информация : Audio Coding 3
Расширение режима : CM (complete main)
Параметр Endianness формата : Big
Идентификатор кодека : A_AC3
Продолжительность : 23 м. 37 с.
Вид битрейта : Постоянный
Битрейт : 192 Кбит/сек
Каналы : 2 канала
Расположение каналов : Front: L R
Частота : 48,0 КГц
Частота кадров : 31,250 кадров/сек (1536 spf)
Метод сжатия : С потерями
Задержка видео : -83 мс.
Размер потока : 32,5 Мбайт (6%)
Default : Да
Forced : Нет

Внимание! Раздача ведётся путём добавления новых серий; при каждом добавлении создаётся новый торрент. Чтобы начать докачку новой серии, пользователям необходимо сделать следующее:
Остановить скачивание.
Удалить старый торрент у себя из клиента (старые серии удалять не надо).
Скачать новый торрент и запустить его у себя в клиенте вместо старого, при этом указать клиенту путь в старую папку куда и должно происходить скачивание новых серий.

Ваш клиент при этом должен произвести хеширование (проверку) старой папки (если не производит сам - помогите ему сделать это), и будет докачивать только те серии которых у вас ещё нет. Старые серии при этом не удаляются, а продолжают раздаваться!
Eсли вы уже удалили старые серии, то предотвратить повторную закачку старых серий можно, отжав галочку в соответсвующих местах при запуске нового торрента. По возможности, желательно не удалять старые серии как можно дольше чтобы релизёр не столько продолжал раздавать старые серии, а смог сконцентрироваться на новых.
piratbit.org



Скачать Родители через торрент https://i93.fastpic.ru/big/2017/1023/8a/bf1c898944e3da87467c5dfab5cef68a.jpg Скачать фильм Родители через торрент бесплантно в хорошем качестве Описание: Прошло пять лет. Все в семье Соколовых подросли и повзрослели, кроме папы. Илья увлёкся киберспортом, Макс — наукой, а Тимофей ... 8.2 10 6
Торрент: Зарегистрирован [2019-09-12 14:24] · скачан: 21 раз
Статус: √ проверено
Размер: 10.26 GB
Как cкачать? Как скачать Родители через торрент | UTorrent

% Раздел Тема Автор DL S | L
TNT serials [ 16.66 GB ] Родители / Сезон: 2 / Серии: 1-20 из 20 [2019 WEB-DL 1080p] bober100 Скачать
1 | 0
TNT serials [ 5.96 GB ] Родители / Сезон: 2 / Серии: 1-20 из 20 [2019 WEBRip-AVC] bober100 Скачать
1 | 0
TNT serials [ 5.87 GB ] Родители / Сезон: 2 / Серии: 1-20 из 20 [2019 WEB-DLRip] bober100 Скачать
1 | 0


Последний раз редактировалось: bober100 (2019-09-12 14:24), всего редактировалось 2 раз(а)

28-11-2019 20:33  

Отключить всю рекламу на сайте

08-09-2019 16:25 Родители Скачать торрент  

Ну и чё,стоит ли смотреть или кал?!) piratbit.org



    Дорогой пользователь! Огромная просьба, поблагодарите релизера, оцените раздачу и оставьте свои комментарий, если Вы скачали Родители через торрент бесплатно! Внесите свою лепту в развитие PiratBit!
    Комментировать посты могут только пользователи прошедшие не сложную регистрацию
    Показать сообщения:    

    Родители через торрент
    Скачать бесплатно Родители
    Родители скачать торрент
    Родители смотреть онлайн
    Cкачать фильм Родители бесплатно
    Родители скачать торрент в хорошем качестве
    Родители смотреть онлайн бесплатно в хорошем качестве


    Вы не можете начинать темы
    Вы не можете отвечать на сообщения
    Вы не можете редактировать свои сообщения
    Вы не можете удалять свои сообщения
    Вы не можете голосовать в опросах
    Вы не можете прикреплять файлы к сообщениям
    Вы можете скачивать файлы