Достать ножи: Стеклянная луковица

MVO

Добыча

Дубляж

Уэнсдэй

1 сезон

Тор

Дубляж

13 клиническая

1 сезон

Жестокая ночь

MVO

Одни из нас

1 сезон

Deluxe

pack

Рекомендуем

30

Пиратка

ВАЖНО

ВАЖНО

Ghostwire

Пиратка

jed

RePack

nioh2

RePack

RDR2

RePack

NEED FOR SPEED™ PAYBACK

RePack

скачать торрент

Кинопоиск HD

Острые козырьки 6 сезон

6 сезон

FAR CRY 6

RePack

скачать торрент

Лицензия

скачать торрент

MVO

1

1 сезон

скачать торрент

1 сезон

скачать торрент

Лицензия

  

Суспирия / Susріrіа (Дарио Ардженто) [1977, ужасы, мистика, UHD BDRip 2160p] [SDR] MVO [Селена Интернешенел] + 3xAVO

Суспирия через торрент piratbit.org

Размер: 22.24 GB | Добавлен: 3 года 6 мес. назад | Торрент скачан:2 раза
Смотреть онлайн | Скачать | Поддержите нас   

27-07-2019 13:38 Суспирия Скачать торрент  

Суспирия / Susріrіа««Do you know anything about witches?»»

Год выпуска: 1977
Страна: Италия
Жанр: ужасы, мистика
Продолжительность: 01:40:50
Перевод: Профессиональный многоголосый, авторский
Субтитры: Русские
Режиссер: Дарио Ардженто
В ролях:

Джессика Харпер (Suzy Bannion), Стефания Казини (Sara), Флавио Буччи (Daniel), Мигель Бозе (Mark), Барбара Магнолфи (Olga), Сузанна Явиколи (Sonia), Эва Аксен (Pat Hingle), Рудольф Шюндлер (Prof. Milius), Удо Кир (Dr. Frank Mandel), Алида Валли (Miss Tanner), Джоан Беннетт (Madame Blanc), Маргерита Хоровиц (Teacher)
Описание:
Юная американка Сюзи приезжает в Германию обучаться мастерству танца в престижной мюнхенской балетной школе. В ночь приезда её туда почему-то не пустили, но она видела, как из здания выбежала девушка, которая позже в ту же ночь была жестоко убита. На утро недоразумение разрешится, Сюзи примут, и она приступит к занятиям. Девушке придётся жить в пансионате при школе, на ночь её будут поить вином с подмешанным снотворным, но Сюзи всё равно почувствует витающую в воздухе школы угрозу и захочет выяснить, что ей угрожает.
Рейтинг:

MPAA: R - Лицам до 17 лет обязательно присутствие взрослого
Качество: UHD BDRip 2160p | SDR
Формат: MKV
Видео: HEVC, 29.1 Mбит/с, 3840x1636, 24.000 кадр/с
Аудио 1: Русский, AC3, 2 канала, 224 Kbps, Многоголосый закадровый (Селена Интернешенел)
Аудио 2: Русский, AC3, 2 канала, 192 Kbps, Гаврилов
Аудио 3: Русский, AC3, 2 канала, 192 Kbps, Штейн
Аудио 4: Русский, AC3, 6 каналов, 448 Kbps, Швецов
Аудио 5: Итальянский, DTS, 6 каналов, 1509 Kbps
Навигация по главам: есть

x265 [info]: frame I: 38, Avg QP:18.12 kb/s: 78882.66
x265 [info]: frame P: 286, Avg QP:19.57 kb/s: 60313.14
x265 [info]: frame B: 2189, Avg QP:22.55 kb/s: 30115.24
x265 [info]: consecutive B-frames: 19.1% 1.9% 2.5% 7.4% 4.3% 7.4% 6.2% 11.1% 5.6% 2.8% 5.9% 7.4% 2.2% 2.5% 3.4% 5.6% 4.9%

Общее
Уникальный идентификатор : 263072438014179726696416739775388315418 (0xC5E9E89972F396F82ECD76B8586BEF1A)
Полное имя : Z:\Суспирия - Susріrіа (1977)(2160p).mkv
Формат : Matroska
Версия формата : Version 4
Размер файла : 22,2 Гбайт
Продолжительность : 1 ч. 40 м.
Общий поток : 31,6 Мбит/сек
Название фильма : Суспирия - Susріrіа (Rip by DSIO)
Дата кодирования : UTC 2019-07-26 02:25:18
Программа кодирования : mkvmerge v35.0.0 ('All The Love In The World') 64-bit
Библиотека кодирования : libebml v1.3.9 + libmatroska v1.5.2
Обложка : Yes
Attachments : cover.jpg
Encoding Gui : Hybrid 2019.06.09.2

Видео
Идентификатор : 1
Формат : HEVC
Формат/Информация : High Efficiency Video Coding
Профиль формата : Main 10@L5.1@High
Идентификатор кодека : V_MPEGH/ISO/HEVC
Продолжительность : 1 ч. 40 м.
Битрейт : 29,1 Мбит/сек
Ширина : 3840 пикселей
Высота : 1636 пикселей
Соотношение сторон : 2,35:1
Режим частоты кадров : Постоянный
Частота кадров : 24,000 кадра/сек
Цветовое пространство : YUV
Субдискретизация насыщенности : 4:2:0
Битовая глубина : 10 бит
Бит/(Пиксели*Кадры) : 0.193
Размер потока : 20,5 Гбайт (92%)
Библиотека кодирования : x265 3.1_RC1+1-10decf67c077:[Windows][GCC 9.1.0][64 bit] 10bit
Настройки программы : cpuid=1176575 / frame-threads=4 / numa-pools=16 / wpp / no-pmode / no-pme / no-psnr / no-ssim / log-level=2 / input-csp=1 / input-res=3840x1636 / interlace=0 / total-frames=0 / level-idc=51 / high-tier=1 / uhd-bd=0 / ref=5 / no-allow-non-conformance / no-repeat-headers / annexb / no-aud / no-hrd / info / hash=0 / no-temporal-layers / open-gop / min-keyint=23 / keyint=240 / gop-lookahead=0 / bframes=16 / b-adapt=2 / b-pyramid / bframe-bias=0 / rc-lookahead=120 / lookahead-slices=4 / scenecut=40 / radl=0 / no-splice / no-intra-refresh / ctu=64 / min-cu-size=8 / rect / amp / max-tu-size=32 / tu-inter-depth=4 / tu-intra-depth=4 / limit-tu=4 / rdoq-level=2 / dynamic-rd=0.00 / no-ssim-rd / signhide / no-tskip / nr-intra=0 / nr-inter=0 / no-constrained-intra / no-strong-intra-smoothing / max-merge=5 / limit-refs=0 / limit-modes / me=3 / subme=7 / merange=192 / temporal-mvp / weightp / weightb / no-analyze-src-pics / deblock=-2:-2 / no-sao / no-sao-non-deblock / rd=5 / no-early-skip / no-rskip / no-fast-intra / no-tskip-fast / no-cu-lossless / b-intra / no-splitrd-skip / rdpenalty=0 / psy-rd=2.00 / psy-rdoq=2.00 / rd-refine / no-lossless / cbqpoffs=0 / crqpoffs=0 / rc=crf / crf=19.0 / qcomp=0.70 / qpstep=4 / stats-write=0 / stats-read=0 / vbv-maxrate=62500 / vbv-bufsize=78125 / vbv-init=0.9 / crf-max=0.0 / crf-min=0.0 / ipratio=1.40 / pbratio=1.30 / aq-mode=1 / aq-strength=0.70 / cutree / zone-count=0 / no-strict-cbr / qg-size=32 / no-rc-grain / qpmax=69 / qpmin=0 / no-const-vbv / sar=0 / overscan=0 / videoformat=5 / range=0 / colorprim=1 / transfer=1 / colormatrix=1 / chromaloc=0 / display-window=0cll=0,0 / min-luma=0 / max-luma=1023 / log2-max-poc-lsb=8 / vui-timing-info / vui-hrd-info / slices=1 / no-opt-qp-pps / no-opt-ref-list-length-pps / no-multi-pass-opt-rps / scenecut-bias=0.05 / no-opt-cu-delta-qp / no-aq-motion / no-hdr / no-hdr-opt / no-dhdr10-opt / no-idr-recovery-sei / analysis-reuse-level=5 / scale-factor=0 / refine-intra=0 / refine-inter=0 / refine-mv=0 / refine-ctu-distortion=0 / no-limit-sao / ctu-info=0 / no-lowpass-dct / refine-analysis-type=0 / copy-pic=1 / max-ausize-factor=1.0 / no-dynamic-refine / no-single-sei / no-hevc-aq / no-svt / no-field / qp-adaptation-range=1.00
Default : Да
Forced : Да
Цветовой диапазон : Limited
Основные цвета : BT.709
Характеристики трансфера : BT.709
Коэффициенты матрицы : BT.709

Аудио #1
Идентификатор : 2
Формат : AC-3
Формат/Информация : Audio Coding 3
Коммерческое название : Dolby Digital
Идентификатор кодека : A_AC3
Продолжительность : 1 ч. 38 м.
Вид битрейта : Постоянный
Битрейт : 224 Кбит/сек
Каналы : 2 канала
Channel layout : L R
Частота : 48,0 КГц
Частота кадров : 31,250 кадров/сек (1536 SPF)
Битовая глубина : 16 бит
Метод сжатия : С потерями
Размер потока : 158 Мбайт (1%)
Заголовок : MVO
Язык : Russian
ServiceKind/String : Complete Main
Default : Да
Forced : Нет

Аудио #2
Идентификатор : 3
Формат : AC-3
Формат/Информация : Audio Coding 3
Коммерческое название : Dolby Digital
Идентификатор кодека : A_AC3
Продолжительность : 1 ч. 38 м.
Вид битрейта : Постоянный
Битрейт : 192 Кбит/сек
Каналы : 2 канала
Channel layout : L R
Частота : 48,0 КГц
Частота кадров : 31,250 кадров/сек (1536 SPF)
Битовая глубина : 16 бит
Метод сжатия : С потерями
Размер потока : 135 Мбайт (1%)
Заголовок : Гаврилов
Язык : Russian
ServiceKind/String : Complete Main
Default : Нет
Forced : Нет

Аудио #3
Идентификатор : 4
Формат : AC-3
Формат/Информация : Audio Coding 3
Коммерческое название : Dolby Digital
Идентификатор кодека : A_AC3
Продолжительность : 1 ч. 38 м.
Вид битрейта : Постоянный
Битрейт : 192 Кбит/сек
Каналы : 2 канала
Channel layout : L R
Частота : 48,0 КГц
Частота кадров : 31,250 кадров/сек (1536 SPF)
Битовая глубина : 16 бит
Метод сжатия : С потерями
Размер потока : 135 Мбайт (1%)
Заголовок : Штейн
Язык : Russian
ServiceKind/String : Complete Main
Default : Нет
Forced : Нет

Аудио #4
Идентификатор : 5
Формат : AC-3
Формат/Информация : Audio Coding 3
Коммерческое название : Dolby Digital
Идентификатор кодека : A_AC3
Продолжительность : 1 ч. 38 м.
Вид битрейта : Постоянный
Битрейт : 448 Кбит/сек
Каналы : 6 каналов
Channel layout : L R C LFE Ls Rs
Частота : 48,0 КГц
Частота кадров : 31,250 кадров/сек (1536 SPF)
Битовая глубина : 16 бит
Метод сжатия : С потерями
Размер потока : 316 Мбайт (1%)
Заголовок : Швецов
Язык : Russian
ServiceKind/String : Complete Main
Default : Нет
Forced : Нет

Аудио #5
Идентификатор : 6
Формат : DTS
Формат/Информация : Digital Theater Systems
Идентификатор кодека : A_DTS
Продолжительность : 1 ч. 39 м.
Вид битрейта : Постоянный
Битрейт : 1509 Кбит/сек
Каналы : 6 каналов
Channel layout : C L R Ls Rs LFE
Частота : 48,0 КГц
Частота кадров : 93,750 кадра/сек (512 SPF)
Битовая глубина : 16 бит
Метод сжатия : С потерями
Размер потока : 1,04 Гбайт (5%)
Язык : Italian
Default : Нет
Forced : Нет

Текст
Идентификатор : 7
Формат : UTF-8
Идентификатор кодека : S_TEXT/UTF8
Идентификатор кодека/Информация : UTF-8 Plain Text
Продолжительность : 1 ч. 33 м.
Битрейт : 66 бит/сек
ElementCount : 737
Размер потока : 45,7 Кбайт (0%)
Заголовок : Русский
Язык : Russian
Default : Нет
Forced : Нет

Меню
00:00:00.000 : :Глава 01
00:08:10.458 : :Глава 02
00:14:31.916 : :Глава 03
00:24:42.208 : :Глава 04
00:32:14.750 : :Глава 05
00:43:11.875 : :Глава 06
00:49:28.875 : :Глава 07
00:57:43.208 : :Глава 08
01:09:02.041 : :Глава 09
01:16:44.250 : :Глава 10
01:22:54.875 : :Глава 11
01:32:12.000 : :Глава 12



Скачать Суспирия через торрент https://d.radikal.ru/d00/1907/7b/eba07072df08.png Скачать, смотреть онлайн Суспирия бесплантно в хорошем качестве Описание: Юная американка Сюзи приезжает в Германию обучаться мастерству танца в престижной мюнхенской балетной школе. В ночь приезда её ... 10 10 2
Торрент: Зарегистрирован [2019-07-27 13:38] · скачан: 2 раз
Статус: √ проверено
Размер: 22.24 GB
Как cкачать? Как скачать Суспирия через торрент | UTorrent

% Раздел Тема Автор DL S | L
Ultra HD (UHD: 2K, 4K, 8K) [ 47.77 GB ] Суспирия / Suspiria | MVO | 2160p sheker187 Скачать
1 | 0

28-11-2019 20:33  


Отключить вcю реклaмy на сайте, в т.ч. и в плеере онлайн просмотра!

    Дорогой пользователь! Огромная просьба, поблагодарите релизера, оцените раздачу и оставьте свои комментарий, если Вы скачали Суспирия через торрент бесплатно!!
    Комментировать посты могут только пользователи прошедшие не сложную регистрацию
    Показать сообщения:    


    Суспирия через торрент
    Скачать бесплатно Суспирия
    Суспирия скачать торрент
    Суспирия смотреть онлайн
    Cкачать фильм Суспирия бесплатно
    Суспирия скачать торрент в хорошем качестве
    Суспирия смотреть онлайн бесплатно в хорошем качестве
    Вы не можете начинать темы
    Вы не можете отвечать на сообщения
    Вы не можете редактировать свои сообщения
    Вы не можете удалять свои сообщения
    Вы не можете голосовать в опросах
    Вы не можете прикреплять файлы к сообщениям
    Вы можете скачивать файлы
    Суспирия / Susріrіа [1977, ужасы, мистика, UHD BDRip 2160p] [SDR] MVO [Селена Интернешенел] + 3xAVO смотреть онлайн, скачать торрент picoco.icu