Доктор Стрэндж

Лицензия

Добыча

Дубляж

Дом дракона

1 сезон

Тор

Дубляж

В эфире

Дубляж

Там, где раки поют

MVO

Властелин колец

1 сезон

Deluxe

pack

Рекомендуем

30

Пиратка

ВАЖНО

ВАЖНО

Ghostwire

Пиратка

jed

RePack

nioh2

RePack

RDR2

RePack

NEED FOR SPEED™ PAYBACK

RePack

скачать торрент

Кинопоиск HD

Острые козырьки 6 сезон

6 сезон

FAR CRY 6

RePack

скачать торрент

Лицензия

скачать торрент

MVO

1

1 сезон

скачать торрент

1 сезон

скачать торрент

Лицензия

  

Играй или умри / Play or Die (Жак Клюгер) [2019, ужасы, WEB-DLRip-AVC] Дубляж [iTunes]

Играй или умри через торрент piratbit.org

Размер: 1.58 GB | Добавлен: 3 года 4 мес. назад | Торрент скачан:142 раза
Смотреть онлайн | Скачать   

27-07-2019 16:56 Играй или умри Скачать торрент  

Играй или умри / Play or Die
Год выпуска: 2019
Страна: Бельгия
Жанр: ужасы
Продолжительность: 01:29:17
Перевод: Дублированный | iTunes
Субтитры: Английские

Режиссер: Жак Клюгер

rating

В ролях: Чарли Палмер Ротуэлл, Роксана Мескида, Летиция Шамбон, Хелена Шамбон, Игорь ван Дессель, Томас Мастин, Мария Забуковек, Дафна Хюн, Ализе Ге, Кэролайн Доннелли

Описание: Добро пожаловать в «Паранойю» - самую жестокую игру на выживание, в которой придется сражаться до самого конца. В ней только два правила: «все - обман» и «один из вас умрёт».

Качество: WEB-DLRip-AVC
Формат: MKV

Видео: 1024x436 (2.35:1), 24,000 fps, x264 ~2 154 kbps avg, 0.201 bit/pixel
Аудио: 48 kHz, AC3 Dolby Digital, 3/2 (L,C,R,l,r) + LFE ch, ~384.00 kbps avg | RUS (iTunes)
скриншот  скриншот  скриншот  скриншот  

Общее
Уникальный идентификатор : 138727121954696409763456686376895409935 (0x685DDF300FEC59A69CAA693031486F0F)
Полное имя : F:\OlLanDGroup\Play.or.Die.2019.AMZN.WEB-DLRip(AVC).OlLanDGroup.mkv
Формат : Matroska
Версия формата : Version 4 / Version 2
Размер файла : 1,58 Гбайт
Продолжительность : 1 ч. 29 м.
Общий поток : 2535 Кбит/сек
Название фильма : Play.or.Die.2019 #TorpedoUK#
Дата кодирования : UTC 2019-07-29 09:01:22
Программа кодирования : mkvmerge v29.0.0 ('Like It Or Not') 64-bit
Библиотека кодирования : libebml v1.3.6 + libmatroska v1.4.9

Видео
Идентификатор : 1
Формат : AVC
Формат/Информация : Advanced Video Codec
Профиль формата : High@L4.1
Параметр CABAC формата : Да
Параметр ReFrames формата : 10 кадров
Идентификатор кодека : V_MPEG4/ISO/AVC
Продолжительность : 1 ч. 29 м.
Битрейт : 2154 Кбит/сек
Ширина : 1024 пикселя
Высота : 436 пикселей
Соотношение сторон : 2,35:1
Режим частоты кадров : Постоянный
Частота кадров : 24,000 кадра/сек
Цветовое пространство : YUV
Субдискретизация насыщенности : 4:2:0
Битовая глубина : 8 бит
Тип развёртки : Прогрессивная
Бит/(Пиксели*Кадры) : 0.201
Размер потока : 1,34 Гбайт (85%)
Библиотека кодирования : x264 core 146 r2538 121396c
Настройки программы : cabac=1 / ref=10 / deblock=1:-2:-3 / analyse=0x3:0x113 / me=umh / subme=10 / psy=1 / psy_rd=0.90:0.10 / mixed_ref=1 / me_range=48 / chroma_me=1 / trellis=2 / 8x8dct=1 / cqm=0 / deadzone=21,11 / fast_pskip=1 / chroma_qp_offset=-3 / threads=6 / lookahead_threads=1 / sliced_threads=0 / nr=0 / decimate=1 / interlaced=0 / bluray_compat=0 / constrained_intra=0 / bframes=11 / b_pyramid=2 / b_adapt=2 / b_bias=0 / direct=3 / weightb=1 / open_gop=0 / weightp=2 / keyint=240 / keyint_min=24 / scenecut=40 / intra_refresh=0 / rc_lookahead=40 / rc=2pass / mbtree=0 / bitrate=2154 / ratetol=1.0 / qcomp=0.60 / qpmin=0 / qpmax=69 / qpstep=4 / cplxblur=20.0 / qblur=0.5 / vbv_maxrate=50000 / vbv_bufsize=62500 / nal_hrd=none / filler=0 / ip_ratio=1.40 / pb_ratio=1.30 / aq=1:1.00
Язык : English
Default : Да
Forced : Нет

Аудио
Идентификатор : 2
Формат : AC-3
Формат/Информация : Audio Coding 3
Расширение режима : CM (complete main)
Параметр Endianness формата : Big
Идентификатор кодека : A_AC3
Продолжительность : 1 ч. 29 м.
Вид битрейта : Постоянный
Битрейт : 384 Кбит/сек
Каналы : 6 каналов
Расположение каналов : Front: L C R, Side: L R, LFE
Частота : 48,0 КГц
Частота кадров : 31,250 кадров/сек (1536 spf)
Битовая глубина : 16 бит
Метод сжатия : С потерями
Размер потока : 245 Мбайт (15%)
Заголовок : Дубляж [iTunes]
Язык : Russian
Default : Да
Forced : Нет

Текст
Идентификатор : 3
Формат : UTF-8
Идентификатор кодека : S_TEXT/UTF8
Идентификатор кодека/Информация : UTF-8 Plain Text
Продолжительность : 1 ч. 23 м.
Битрейт : 35 бит/сек
Count of elements : 814
Размер потока : 22,0 Кбайт (0%)
Заголовок : Full
Язык : English
Default : Нет
Forced : Нет

Меню
00:00:00.000 : en:Chapter 1
00:11:05.665 : en:Chapter 2
00:16:47.006 : en:Chapter 3
00:29:23.762 : en:Chapter 4
00:40:26.424 : en:Chapter 5
00:51:19.076 : en:Chapter 6
01:00:44.641 : en:Chapter 7
01:10:11.207 : en:Chapter 8
01:18:23.699 : en:Chapter 9
01:27:02.217 : en:Chapter 10




Скачать Играй или умри через торрент https://i2-imageban-ru.translate.goog/out/2019/07/28/d4c8e6f5c92f6eed41d79998acea22bc.png Скачать, смотреть онлайн Играй или умри бесплантно в хорошем качестве Описание: Добро пожаловать в «Паранойю» - самую жестокую игру на выживание, в которой придется сражаться до самого конца. В ней только два ... 8.3 10 6
Торрент: Зарегистрирован [2019-07-29 09:28] · скачан: 142 раз
Статус: √ проверено
Размер: 1.58 GB
Как cкачать? Как скачать Играй или умри через торрент | UTorrent

% Раздел Тема Автор DL S | L
Фильмы (WEB-DL 720p, 1080p) [ 4.3 GB ] Играй или умри / Play or Die | iTunes | 1080p bober100 Скачать
1 | 0
Фильмы 2019-2020 [DVDrip, WEB-DLRip, HDrip] (DUB, MVO) [ 1.45 GB ] Играй или умри / Play or Die | iTunes | DLRip bober100 Скачать
2 | 0

28-11-2019 20:33  


Отключить вcю реклaмy на сайте, в т.ч. и в плеере онлайн просмотра!

    Дорогой пользователь! Огромная просьба, поблагодарите релизера, оцените раздачу и оставьте свои комментарий, если Вы скачали Играй или умри через торрент бесплатно!!
    Комментировать посты могут только пользователи прошедшие не сложную регистрацию
    Показать сообщения:    


    Играй или умри через торрент
    Скачать бесплатно Играй или умри
    Играй или умри скачать торрент
    Играй или умри смотреть онлайн
    Cкачать фильм Играй или умри бесплатно
    Играй или умри скачать торрент в хорошем качестве
    Играй или умри смотреть онлайн бесплатно в хорошем качестве
    Вы не можете начинать темы
    Вы не можете отвечать на сообщения
    Вы не можете редактировать свои сообщения
    Вы не можете удалять свои сообщения
    Вы не можете голосовать в опросах
    Вы не можете прикреплять файлы к сообщениям
    Вы можете скачивать файлы
    Играй или умри / Play or Die [2019, ужасы, WEB-DLRip-AVC] Дубляж [iTunes] смотреть онлайн, скачать торрент picoco.icu