Достать ножи: Стеклянная луковица

MVO

Добыча

Дубляж

Уэнсдэй

1 сезон

Тор

Дубляж

13 клиническая

1 сезон

Жестокая ночь

MVO

Одни из нас

1 сезон

Deluxe

pack

Рекомендуем

30

Пиратка

ВАЖНО

ВАЖНО

Ghostwire

Пиратка

jed

RePack

nioh2

RePack

RDR2

RePack

NEED FOR SPEED™ PAYBACK

RePack

скачать торрент

Кинопоиск HD

Острые козырьки 6 сезон

6 сезон

FAR CRY 6

RePack

скачать торрент

Лицензия

скачать торрент

MVO

1

1 сезон

скачать торрент

1 сезон

скачать торрент

Лицензия

  

Матрица: Трилогия / The Matrix: Trilogy [1999-2003, Боевик, Фантастика, Приключения, UHD BDRip 2160p]

Матрица: Трилогия через торрент piratbit.org

Размер: 100.57 GB | Добавлен: 3 года 5 мес. назад | Торрент скачан:667 раз
Смотреть онлайн | Скачать | Поддержите нас   

31-07-2019 09:00 Матрица: Трилогия Скачать торрент  

Матрица: Трилогия / The Matrix: TrilogyПроизводство: США, Австралия / Warner Bros., Village Roadshow Pictures
Жанр: Боевик, Фантастика, Приключения

Режиссер: Энди Вачовски, Лана Вачовски

Актеры: Киану Ривз, Лоренс Фишбёрн, Кэрри-Энн Мосс, Хьюго Уивинг, Глория Фостер, Джо Пантольяно, Маркус Чонг, Джулиан Араханга, Мэтт Доран, Белинда МакКлори, Моника Беллуччи, Ламбер Вильсон, Энтони Вон, Гарри Дж. Ленникс, Рэндолл Дак Ким, Брюс Спенс, Джада Пинкетт Смит, Хэролд Перрино, Хельмут Бакайтис

Описание: Фильм изображает будущее, в котором реальность, существующая для большинства людей, - есть в действительности симуляция, созданная разумными машинами, чтобы подчинить и усмирить человеческое население, в то время как тепло и электрическая активность их тел используются машинами в качестве источника энергии. Узнав об этом, хакер по кличке Нео оказывается втянут в повстанческую борьбу против машин, в которую также вовлечены другие люди, освободившиеся из «мира снов» и выбравшиеся в реальность. Идея «Матрицы» во многом воспроизводит платоновский миф о пещере, а по мнению Сократа, это воплощённая идея солипсизма. Фильм содержит множество ссылок на киберпанк и хакерскую субкультуру, философские и религиозные, в особенности гностические, идеи. «Матрица» также активно использует мотивы «Алисы в Стране чудес» и Айзека Азимова (рассказ «Профессия») и романа Артура Кларка «Город и звёзды», гонконгских боевиков и японского аниме.

Релиз от: BlueBird
Продолжительность: 02:16:21 + 02:18:18 + 02:09:18
Качество: UHD BDRip 2160p
Перевод: Дублированный, профессиональный (двухголосый, закадровый), профессиональный (многоголосый, закадровый), авторский (одноголосый, закадровый)
Субтитры: Русские, английские, украинские (2,3 часть)
Производство: США / Warner Bros., Village Roadshow Pictures
Жанр: Фантастика, боевик, приключения

Режиссер: Энди Вачовски, Лана Вачовски
Актеры: Киану Ривз, Лоренс Фишбёрн, Кэрри-Энн Мосс, Хьюго Уивинг, Глория Фостер, Джо Пантольяно, Маркус Чонг, Джулиан Араханга, Мэтт Доран, Белинда МакКлори

Описание: Мир Матрицы — это иллюзия, существующая только в бесконечном сне обреченного человечества. Холодный мир будущего, в котором люди — всего лишь батарейки в компьютерных системах.

rating

Продолжительность: 02:16:21
Перевод: Дублированный, профессиональный (двухголосый, закадровый), профессиональный (многоголосый, закадровый), авторский (одноголосый, закадровый)
Субтитры: Русские, английские

Качество: UHD BDRip 2160p
Формат: MKV

Видео: H.265/HEVC, 3840x1600, (2.40:1), ~24.7 Mbps, 23.976 fps
Аудио 1: AC3, 6 ch, 640 kbps - Русский (Дублированный)
Аудио 2: AC3, 6 ch, 640 kbps - Русский (DVO - П.Гланц, И.Королёва)
Аудио 3: AC3, 2 ch, 192 kbps - Русский (MVO - HTB)
Аудио 4: AC3, 6 ch, 640 kbps - Русский (AVO - А.Гаврилов)
Аудио 5: AC3, 6 ch, 640 kbps - Русский (AVO - Ю.Живов)
Аудио 6: AC3, 6 ch, 640 kbps - Русский (AVO - Д.Пучков)
Аудио 7: AC3, 6 ch, 448 kbps - Украинский (MVO 1+1)

Аудио 8: AC3, 6 ch, 640 kbps - Английский
скриншот  скриншот  скриншот  скриншот  

General
Unique ID : 273509448365062993096374913362257907679 (0xCDC400F061558015CDD6FAE0890E0FDF)
Complete name : S:TH_MTRX_1999_UHD-BDRip_HDR_BT2020_x265_2160P -BLUEBIRD.mkv
Format : Matroska
Format version : Version 4
File size : 27.8 GiB
Duration : 2 h 16 min
Overall bit rate : 29.2 Mb/s
Movie name : The Matrix_1999_UHD-BDRip_HDR_BT2020_x265_2160P -BLUEBIRD
Encoded date : UTC 2018-06-03 12:07:31
Writing application : mkvmerge v21.0.0 ('Tardigrades Will Inherit The Earth') 64-bit
Writing library : libebml v1.3.5 + libmatroska v1.4.8
Attachments : matrix-4k-uhd-main.jpg / Log_x265.txt

Video
ID : 1
Format : HEVC
Format/Info : High Efficiency Video Coding
Commercial name : HDR10
Format profile : Main 10@L5.1@High
Codec ID : V_MPEGH/ISO/HEVC
Duration : 2 h 16 min
Bit rate : 24.7 Mb/s
Width : 3 840 pixels
Height : 1 600 pixels
Display aspect ratio : 2.40:1
Frame rate mode : Constant
Frame rate : 23.976 (24000/1001) FPS
Color space : YUV
Chroma subsampling : 4:2:0 (Type 2)
Bit depth : 10 bits
Bits/(Pixel*Frame) : 0.168
Stream size : 23.5 GiB (85%)
Title : TH_MTRX_1999_UHD-BDRip_HDR_BT2020_x265_2160P -BLUEBIRD
Writing library : x265 2.8+12-9cde2c278464:[Windows][MSVC 1914][64 bit] 10bit
Encoding settings : cpuid=1111039 / frame-threads=3 / numa-pools=12 / wpp / no-pmode / no-pme / no-psnr / no-ssim / log-level=2 / input-csp=1 / input-res=3840x1600 / interlace=0 / total-frames=196092 / level-idc=51 / high-tier=1 / uhd-bd=0 / ref=4 / no-allow-non-conformance / repeat-headers / annexb / no-aud / no-hrd / info / hash=0 / no-temporal-layers / no-open-gop / min-keyint=24 / keyint=240 / gop-lookahead=0 / bframes=9 / b-adapt=2 / b-pyramid / bframe-bias=0 / rc-lookahead=96 / lookahead-slices=4 / scenecut=40 / radl=0 / no-intra-refresh / ctu=64 / min-cu-size=8 / no-rect / no-amp / max-tu-size=32 / tu-inter-depth=1 / tu-intra-depth=1 / limit-tu=0 / rdoq-level=2 / dynamic-rd=0.00 / no-ssim-rd / signhide / no-tskip / nr-intra=0 / nr-inter=0 / no-constrained-intra / no-strong-intra-smoothing / max-merge=5 / limit-refs=3 / limit-modes / me=3 / subme=7 / merange=57 / temporal-mvp / weightp / weightb / no-analyze-src-pics / deblock=0:0 / no-sao / no-sao-non-deblock / rd=4 / no-early-skip / no-rskip / no-fast-intra / no-tskip-fast / no-cu-lossless / no-b-intra / no-splitrd-skip / rdpenalty=0 / psy-rd=2.55 / psy-rdoq=1.75 / no-rd-refine / no-lossless / cbqpoffs=0 / crqpoffs=0 / rc=crf / crf=21.8 / qcomp=0.70 / qpstep=4 / stats-write=0 / stats-read=0 / vbv-maxrate=160000 / vbv-bufsize=160000 / vbv-init=0.9 / crf-max=0.0 / crf-min=0.0 / ipratio=1.20 / pbratio=1.10 / aq-mode=0 / aq-strength=0.00 / no-cutree / zone-count=0 / no-strict-cbr / qg-size=32 / no-rc-grain / qpmax=69 / qpmin=0 / no-const-vbv / sar=0 / overscan=0 / videoformat=5 / range=0 / colorprim=9 / transfer=16 / colormatrix=9 / chromaloc=1 / chromaloc-top=2 / chromaloc-bottom=2 / display-window=0 / master-display=G(13250,34500)B(7500,3000)R(34000,16000)WP(15635,16450)L(10000000,20) / max-cll=992,518 / min-luma=0 / max-luma=1023 / log2-max-poc-lsb=8 / vui-timing-info / vui-hrd-info / slices=1 / no-opt-qp-pps / no-opt-ref-list-length-pps / no-multi-pass-opt-rps / scenecut-bias=0.05 / no-opt-cu-delta-qp / no-aq-motion / hdr / no-hdr-opt / no-dhdr10-opt / no-idr-recovery-sei / analysis-reuse-level=5 / scale-factor=0 / refine-intra=0 / refine-inter=0 / refine-mv=0 / no-limit-sao / ctu-info=0 / no-lowpass-dct / refine-mv-type=0 / copy-pic=1 / max-ausize-factor=1.0 / no-dynamic-refine / no-single-sei
Default : Yes
Forced : No
Color range : Limited
Color primaries : BT.2020
Transfer characteristics : PQ
Matrix coefficients : BT.2020 non-constant
Mastering display color pri : Display P3
Mastering display luminance : min: 0.0020 cd/m2, max: 1000 cd/m2
Maximum Content Light Level : 992 cd/m2
Maximum Frame-Average Light : 518 cd/m2

Audio #1
ID : 2
Format : AC-3
Format/Info : Audio Coding 3
Commercial name : Dolby Digital
Codec ID : A_AC3
Duration : 2 h 16 min
Bit rate mode : Constant
Bit rate : 640 kb/s
Channel(s) : 6 channels
Channel layout : L R C LFE Ls Rs
Sampling rate : 48.0 kHz
Frame rate : 31.250 FPS (1536 SPF)
Bit depth : 16 bits
Compression mode : Lossy
Stream size : 624 MiB (2%)
Title : Дубляж [BD UHD]
Language : Russian
Service kind : Complete Main
Default : Yes
Forced : No

Audio #2
ID : 3
Format : AC-3
Format/Info : Audio Coding 3
Commercial name : Dolby Digital
Codec ID : A_AC3
Duration : 2 h 16 min
Bit rate mode : Constant
Bit rate : 640 kb/s
Channel(s) : 6 channels
Channel layout : L R C LFE Ls Rs
Sampling rate : 48.0 kHz
Frame rate : 31.250 FPS (1536 SPF)
Bit depth : 16 bits
Compression mode : Lossy
Stream size : 624 MiB (2%)
Title : DVO [П.Гланц, И.Королёва]
Language : Russian
Service kind : Complete Main
Default : No
Forced : No

Audio #3
ID : 4
Format : AC-3
Format/Info : Audio Coding 3
Commercial name : Dolby Digital
Codec ID : A_AC3
Duration : 2 h 16 min
Bit rate mode : Constant
Bit rate : 192 kb/s
Channel(s) : 2 channels
Channel layout : L R
Sampling rate : 48.0 kHz
Frame rate : 31.250 FPS (1536 SPF)
Bit depth : 16 bits
Compression mode : Lossy
Stream size : 187 MiB (1%)
Title : MVO [HTB]
Language : Russian
Service kind : Complete Main
Default : No
Forced : No

Audio #4
ID : 5
Format : AC-3
Format/Info : Audio Coding 3
Commercial name : Dolby Digital
Codec ID : A_AC3
Duration : 2 h 16 min
Bit rate mode : Constant
Bit rate : 640 kb/s
Channel(s) : 6 channels
Channel layout : L R C LFE Ls Rs
Sampling rate : 48.0 kHz
Frame rate : 31.250 FPS (1536 SPF)
Bit depth : 16 bits
Compression mode : Lossy
Stream size : 624 MiB (2%)
Title : AVO [А.Гаврилов]
Language : Russian
Service kind : Complete Main
Default : No
Forced : No

Audio #5
ID : 6
Format : AC-3
Format/Info : Audio Coding 3
Commercial name : Dolby Digital
Codec ID : A_AC3
Duration : 2 h 16 min
Bit rate mode : Constant
Bit rate : 640 kb/s
Channel(s) : 6 channels
Channel layout : L R C LFE Ls Rs
Sampling rate : 48.0 kHz
Frame rate : 31.250 FPS (1536 SPF)
Bit depth : 16 bits
Compression mode : Lossy
Stream size : 624 MiB (2%)
Title : AVO [Ю. Живов]
Language : Russian
Service kind : Complete Main
Default : No
Forced : No

Audio #6
ID : 7
Format : AC-3
Format/Info : Audio Coding 3
Commercial name : Dolby Digital
Codec ID : A_AC3
Duration : 2 h 16 min
Bit rate mode : Constant
Bit rate : 640 kb/s
Channel(s) : 6 channels
Channel layout : L R C LFE Ls Rs
Sampling rate : 48.0 kHz
Frame rate : 31.250 FPS (1536 SPF)
Bit depth : 16 bits
Compression mode : Lossy
Stream size : 624 MiB (2%)
Title : AVO [Д. Пучков]
Language : Russian
Service kind : Complete Main
Default : No
Forced : No

Audio #7
ID : 8
Format : AC-3
Format/Info : Audio Coding 3
Commercial name : Dolby Digital
Codec ID : A_AC3
Duration : 2 h 16 min
Bit rate mode : Constant
Bit rate : 448 kb/s
Channel(s) : 6 channels
Channel layout : L R C LFE Ls Rs
Sampling rate : 48.0 kHz
Frame rate : 31.250 FPS (1536 SPF)
Bit depth : 16 bits
Compression mode : Lossy
Stream size : 437 MiB (2%)
Title : MVO [1+1]
Language : Ukrainian
Service kind : Complete Main
Default : No
Forced : No

Audio #8
ID : 9
Format : AC-3
Format/Info : Audio Coding 3
Commercial name : Dolby Digital
Codec ID : A_AC3
Duration : 2 h 16 min
Bit rate mode : Constant
Bit rate : 640 kb/s
Channel(s) : 6 channels
Channel layout : L R C LFE Ls Rs
Sampling rate : 48.0 kHz
Frame rate : 31.250 FPS (1536 SPF)
Bit depth : 16 bits
Compression mode : Lossy
Stream size : 624 MiB (2%)
Language : English
Service kind : Complete Main
Default : No
Forced : No

Text #1
ID : 10
Format : UTF-8
Codec ID : S_TEXT/UTF8
Codec ID/Info : UTF-8 Plain Text
Duration : 2 h 15 min
Bit rate : 63 b/s
Count of elements : 1367
Stream size : 63.5 KiB (0%)
Title : full [SDI Media Group - BD UHD]
Language : Russian
Default : Yes
Forced : No

Text #2
ID : 11
Format : UTF-8
Codec ID : S_TEXT/UTF8
Codec ID/Info : UTF-8 Plain Text
Duration : 2 h 15 min
Bit rate : 40 b/s
Count of elements : 1373
Stream size : 39.8 KiB (0%)
Title : SDH [BD UHD]
Language : English
Default : No
Forced : No

Menu
00:00:00.000 : en:Chapter 1
00:03:25.788 : en:Chapter 2
00:06:35.645 : en:Chapter 3
00:09:42.665 : en:Chapter 4
00:11:58.300 : en:Chapter 5
00:16:47.423 : en:Chapter 6
00:21:33.542 : en:Chapter 7
00:25:08.590 : en:Chapter 8
00:28:51.146 : en:Chapter 9
00:32:25.193 : en:Chapter 10
00:35:21.869 : en:Chapter 11
00:38:40.901 : en:Chapter 12
00:44:22.576 : en:Chapter 13
00:46:33.540 : en:Chapter 14
00:48:57.851 : en:Chapter 15
00:53:31.291 : en:Chapter 16
00:56:32.138 : en:Chapter 17
00:59:01.287 : en:Chapter 18
01:01:08.581 : en:Chapter 19
01:05:16.495 : en:Chapter 20
01:07:46.812 : en:Chapter 21
01:12:33.432 : en:Chapter 22
01:17:49.581 : en:Chapter 23
01:21:03.108 : en:Chapter 24
01:25:05.350 : en:Chapter 25
01:29:45.129 : en:Chapter 26
01:31:27.565 : en:Chapter 27
01:37:25.256 : en:Chapter 28
01:41:04.975 : en:Chapter 29
01:44:20.337 : en:Chapter 30
01:47:00.497 : en:Chapter 31
01:50:18.528 : en:Chapter 32
01:52:56.686 : en:Chapter 33
01:56:36.906 : en:Chapter 34
01:58:49.372 : en:Chapter 35
02:02:27.423 : en:Chapter 36
02:05:41.784 : en:Chapter 37
02:08:46.802 : en:Chapter 38
Производство: США, Австралия / Warner Bros., Village Roadshow Pictures
Жанр: Фантастика, боевик, приключения

Режиссер: Энди Вачовски, Лана Вачовски

Актеры: Киану Ривз, Хьюго Уивинг, Кэрри-Энн Мосс, Лоренс Фишбёрн, Моника Беллуччи, Ламбер Вильсон, Энтони Вон, Гарри Дж. Ленникс, Рэндолл Дак Ким, Глория Фостер

Описание: Борцы за свободу Нео, Тринити и Морфеус продолжают руководить восстанием людей против Армии Машин. Для уничтожения системы репрессий и эксплуатации они вынуждены прибегнуть не только к арсеналу превосходного оружия, но и к своим выдающимся навыкам.
Участие в миссии по спасению человеческой расы от ее полного истребления приносит им более глубокое понимание конструкции Матрицы и осознание центральной роли Нео в судьбе человечества.

rating

Продолжительность: 02:18:18
Перевод: Дублированный, профессиональный (двухголосый, закадровый), авторский (одноголосый, закадровый)
Субтитры: Русские, английские, украинские

Качество: UHD BDRip 2160p
Формат: MKV

Видео: H.265/HEVC, 3840x1600, (2.40:1), ~27.0 Mbps, 23.976 fps
Аудио 1: AC3, 6 ch, 640 kbps - Русский (Дублированный)
Аудио 2: DTS-HD MA, 6 ch, 2424 kbps - Русский (DVO - П.Гланц, И.Королёва)
Аудио 3: DTS-HD MA, 6 ch, 2423 kbps - Русский (AVO - А.Гаврилов)
Аудио 4: DTS, 6 ch, 1509 kbps - Русский (AVO - Ю.Живов)
Аудио 5: AC3, 6 ch, 448 kbps - Украинский (MVO - Тak Тreba)
Аудио 6: AC3, 6 ch, 448 kbps - Украинский (MVO 1+1)
Аудио 7: TrueHD, 8 ch, 3425 kbps - Английский
Аудио 8: AC3, 6 ch, 640 kbps - Английский
скриншот  скриншот  скриншот  скриншот  

General
Unique ID : 299559451322827871682515757468749891855 (0xE15D0D3F0231A2A451D653FB78DF890F)
Complete name : S:TH_MTRX_RLDD_2003_UHD-BDRip_HDR_BT2020_x265_2160p -BLUEBIRD.mkv
Format : Matroska
Format version : Version 4
File size : 37.8 GiB
Duration : 2 h 18 min
Overall bit rate mode : Variable
Overall bit rate : 39.1 Mb/s
Movie name : The Matrix Reloaded (2003) UHD-BDRip_HDR_BT2020_x265_2160p -BLUEBIRD
Encoded date : UTC 2018-11-02 11:56:34
Writing application : mkvmerge v28.2.0 ('The Awakening') 64-bit
Writing library : libebml v1.3.6 + libmatroska v1.4.9

Video
ID : 1
Format : HEVC
Format/Info : High Efficiency Video Coding
Commercial name : HDR10
Format profile : Main 10@L5.1@High
Codec ID : V_MPEGH/ISO/HEVC
Duration : 2 h 18 min
Bit rate : 27.0 Mb/s
Width : 3 840 pixels
Height : 1 600 pixels
Display aspect ratio : 2.40:1
Frame rate mode : Constant
Frame rate : 23.976 (24000/1001) FPS
Color space : YUV
Chroma subsampling : 4:2:0 (Type 2)
Bit depth : 10 bits
Bits/(Pixel*Frame) : 0.184
Stream size : 26.1 GiB (69%)
Writing library : x265 2.9+2-7e978ed93d60:[Windows][MSVC 1915][64 bit] 10bit
Encoding settings : cpuid=1111039 / frame-threads=4 / numa-pools=24 / wpp / no-pmode / no-pme / no-psnr / no-ssim / log-level=2 / input-csp=1 / input-res=3840x1600 / interlace=0 / total-frames=198941 / level-idc=51 / high-tier=1 / uhd-bd=0 / ref=4 / no-allow-non-conformance / repeat-headers / annexb / no-aud / no-hrd / info / hash=0 / no-temporal-layers / no-open-gop / min-keyint=24 / keyint=250 / gop-lookahead=0 / bframes=9 / b-adapt=2 / b-pyramid / bframe-bias=0 / rc-lookahead=96 / lookahead-slices=4 / scenecut=40 / radl=0 / no-intra-refresh / ctu=64 / min-cu-size=8 / no-rect / no-amp / max-tu-size=32 / tu-inter-depth=1 / tu-intra-depth=1 / limit-tu=0 / rdoq-level=2 / dynamic-rd=0.00 / no-ssim-rd / signhide / no-tskip / nr-intra=0 / nr-inter=0 / no-constrained-intra / no-strong-intra-smoothing / max-merge=5 / limit-refs=3 / limit-modes / me=3 / subme=7 / merange=57 / temporal-mvp / weightp / weightb / no-analyze-src-pics / deblock=0:0 / no-sao / no-sao-non-deblock / rd=4 / no-early-skip / no-rskip / no-fast-intra / no-tskip-fast / no-cu-lossless / no-b-intra / no-splitrd-skip / rdpenalty=0 / psy-rd=2.41 / psy-rdoq=1.87 / no-rd-refine / no-lossless / cbqpoffs=0 / crqpoffs=0 / rc=crf / crf=19.0 / qcomp=0.72 / qpstep=4 / stats-write=0 / stats-read=0 / vbv-maxrate=160000 / vbv-bufsize=160000 / vbv-init=0.9 / crf-max=0.0 / crf-min=0.0 / ipratio=1.40 / pbratio=1.30 / aq-mode=1 / aq-strength=0.90 / cutree / zone-count=0 / no-strict-cbr / qg-size=32 / no-rc-grain / qpmax=69 / qpmin=0 / no-const-vbv / sar=1 / overscan=0 / videoformat=5 / range=0 / colorprim=9 / transfer=16 / colormatrix=9 / chromaloc=1 / chromaloc-top=2 / chromaloc-bottom=2 / display-window=0 / master-display=G(8500,39850)B(6550,2300)R(35400,14600)WP(15635,16450)L(10000000,1) / max-cll=996,246 / min-luma=0 / max-luma=1023 / log2-max-poc-lsb=8 / vui-timing-info / vui-hrd-info / slices=1 / no-opt-qp-pps / no-opt-ref-list-length-pps / no-multi-pass-opt-rps / scenecut-bias=0.05 / no-opt-cu-delta-qp / no-aq-motion / hdr / hdr-opt / no-dhdr10-opt / no-idr-recovery-sei / analysis-reuse-level=5 / scale-factor=0 / refine-intra=0 / refine-inter=0 / refine-mv=0 / no-limit-sao / ctu-info=0 / no-lowpass-dct / refine-mv-type=0 / copy-pic=1 / max-ausize-factor=1.0 / no-dynamic-refine / no-single-sei
Default : Yes
Forced : No
Color range : Limited
Color primaries : BT.2020
Transfer characteristics : PQ
Matrix coefficients : BT.2020 non-constant
Mastering display color pri : BT.2020
Mastering display luminance : min: 0.0001 cd/m2, max: 1000 cd/m2
Maximum Content Light Level : 996 cd/m2
Maximum Frame-Average Light : 246 cd/m2

Audio #1
ID : 2
Format : AC-3
Format/Info : Audio Coding 3
Commercial name : Dolby Digital
Codec ID : A_AC3
Duration : 2 h 18 min
Bit rate mode : Constant
Bit rate : 640 kb/s
Channel(s) : 6 channels
Channel layout : L R C LFE Ls Rs
Sampling rate : 48.0 kHz
Frame rate : 31.250 FPS (1536 SPF)
Bit depth : 16 bits
Compression mode : Lossy
Stream size : 633 MiB (2%)
Title : Дубляж
Language : Russian
Service kind : Complete Main
Default : Yes
Forced : No

Audio #2
ID : 3
Format : DTS XLL
Format/Info : Digital Theater Systems
Commercial name : DTS-HD Master Audio
Codec ID : A_DTS
Duration : 2 h 18 min
Bit rate mode : Variable
Bit rate : 2 424 kb/s
Channel(s) : 6 channels
Channel layout : C L R Ls Rs LFE
Sampling rate : 48.0 kHz
Frame rate : 93.750 FPS (512 SPF)
Bit depth : 16 bits
Compression mode : Lossless
Stream size : 2.34 GiB (6%)
Title : DVO [Glanc & Koroleva]
Language : Russian
Default : No
Forced : No

Audio #3
ID : 4
Format : DTS XLL
Format/Info : Digital Theater Systems
Commercial name : DTS-HD Master Audio
Codec ID : A_DTS
Duration : 2 h 18 min
Bit rate mode : Variable
Bit rate : 2 423 kb/s
Channel(s) : 6 channels
Channel layout : C L R Ls Rs LFE
Sampling rate : 48.0 kHz
Frame rate : 93.750 FPS (512 SPF)
Bit depth : 16 bits
Compression mode : Lossless
Stream size : 2.34 GiB (6%)
Title : VO [Gavrilov]
Language : Russian
Default : No
Forced : No

Audio #4
ID : 5
Format : DTS
Format/Info : Digital Theater Systems
Codec ID : A_DTS
Duration : 2 h 18 min
Bit rate mode : Constant
Bit rate : 1 509 kb/s
Channel(s) : 6 channels
Channel layout : C L R Ls Rs LFE
Sampling rate : 48.0 kHz
Frame rate : 93.750 FPS (512 SPF)
Bit depth : 16 bits
Compression mode : Lossy
Stream size : 1.46 GiB (4%)
Title : VO [Zhivov]
Language : Russian
Default : No
Forced : No

Audio #5
ID : 6
Format : AC-3
Format/Info : Audio Coding 3
Commercial name : Dolby Digital
Codec ID : A_AC3
Duration : 2 h 18 min
Bit rate mode : Constant
Bit rate : 448 kb/s
Channel(s) : 6 channels
Channel layout : L R C LFE Ls Rs
Sampling rate : 48.0 kHz
Frame rate : 31.250 FPS (1536 SPF)
Bit depth : 16 bits
Compression mode : Lossy
Stream size : 443 MiB (1%)
Title : MVO [TakTreba]
Language : Ukrainian
Service kind : Complete Main
Default : No
Forced : No

Audio #6
ID : 7
Format : AC-3
Format/Info : Audio Coding 3
Commercial name : Dolby Digital
Codec ID : A_AC3
Duration : 2 h 18 min
Bit rate mode : Constant
Bit rate : 448 kb/s
Channel(s) : 6 channels
Channel layout : L R C LFE Ls Rs
Sampling rate : 48.0 kHz
Frame rate : 31.250 FPS (1536 SPF)
Bit depth : 16 bits
Compression mode : Lossy
Stream size : 443 MiB (1%)
Title : MVO [1+1]
Language : Ukrainian
Service kind : Complete Main
Default : No
Forced : No

Audio #7
ID : 8
Format : MLP FBA 16-ch
Format/Info : Meridian Lossless Packing FBA with 16-channel presentation
Commercial name : Dolby TrueHD with Dolby Atmos
Codec ID : A_TRUEHD
Duration : 2 h 18 min
Bit rate mode : Variable
Bit rate : 3 425 kb/s
Maximum bit rate : 5 928 kb/s
Channel(s) : 8 channels
Channel layout : L R C LFE Ls Rs Lb Rb
Sampling rate : 48.0 kHz
Frame rate : 1 200.000 FPS (40 SPF)
Compression mode : Lossless
Stream size : 3.31 GiB (9%)
Language : English
Default : No
Forced : No
Number of dynamic objects : 11
Bed channel count : 1 channel
Bed channel configuration : LFE

Audio #8
ID : 9
Format : AC-3
Format/Info : Audio Coding 3
Commercial name : Dolby Digital
Codec ID : A_AC3
Duration : 2 h 18 min
Bit rate mode : Constant
Bit rate : 640 kb/s
Channel(s) : 6 channels
Channel layout : L R C LFE Ls Rs
Sampling rate : 48.0 kHz
Frame rate : 31.250 FPS (1536 SPF)
Bit depth : 16 bits
Compression mode : Lossy
Stream size : 633 MiB (2%)
Language : English
Service kind : Complete Main
Default : No
Forced : No

Text #1
ID : 10
Format : UTF-8
Codec ID : S_TEXT/UTF8
Codec ID/Info : UTF-8 Plain Text
Duration : 2 h 17 min
Bit rate : 67 b/s
Count of elements : 1186
Stream size : 67.9 KiB (0%)
Title : full
Language : Russian
Default : Yes
Forced : No

Text #2
ID : 11
Format : UTF-8
Codec ID : S_TEXT/UTF8
Codec ID/Info : UTF-8 Plain Text
Duration : 2 h 17 min
Bit rate : 67 b/s
Count of elements : 1184
Stream size : 67.6 KiB (0%)
Title : full
Language : Ukrainian
Default : No
Forced : No

Text #3
ID : 12
Format : UTF-8
Codec ID : S_TEXT/UTF8
Codec ID/Info : UTF-8 Plain Text
Duration : 2 h 16 min
Bit rate : 45 b/s
Count of elements : 1229
Stream size : 46.1 KiB (0%)
Title : SDH
Language : English
Default : No
Forced : No

Menu
00:00:00.000 : :00:00:00.000
00:03:52.232 : :00:03:52.232
00:08:57.370 : :00:08:57.370
00:12:18.905 : :00:12:18.905
00:16:26.319 : :00:16:26.319
00:19:45.184 : :00:19:45.184
00:23:31.410 : :00:23:31.410
00:27:28.814 : :00:27:28.814
00:32:03.255 : :00:32:03.255
00:33:45.190 : :00:33:45.190
00:37:59.444 : :00:37:59.444
00:40:57.622 : :00:40:57.622
00:43:46.958 : :00:43:46.958
00:50:44.708 : :00:50:44.708
00:55:10.474 : :00:55:10.474
01:00:05.101 : :01:00:05.101
01:02:51.768 : :01:02:51.768
01:08:54.297 : :01:08:54.297
01:13:08.884 : :01:13:08.884
01:16:23.412 : :01:16:23.412
01:20:33.829 : :01:20:33.829
01:22:49.131 : :01:22:49.131
01:26:14.503 : :01:26:14.503
01:29:54.889 : :01:29:54.889
01:32:52.901 : :01:32:52.901
01:37:12.827 : :01:37:12.827
01:40:53.381 : :01:40:53.381
01:44:59.793 : :01:44:59.793
01:48:14.154 : :01:48:14.154
01:52:27.574 : :01:52:27.574
01:55:44.938 : :01:55:44.938
01:57:39.552 : :01:57:39.552
02:01:53.473 : :02:01:53.473
02:04:20.453 : :02:04:20.453
02:07:06.118 : :02:07:06.118
02:16:31.683 : :02:16:31.683
Производство: США, Австралия / Warner Bros., Village Roadshow Pictures
Жанр: Фантастика, боевик, приключения

Режиссер: Энди Вачовски, Лана Вачовски

Актеры: Киану Ривз, Кэрри-Энн Мосс, Лоренс Фишбёрн, Хьюго Уивинг, Моника Беллуччи, Брюс Спенс, Джада Пинкетт Смит, Хэролд Перрино, Гарри Дж. Ленникс, Хельмут Бакайтис

Описание: Пока армия Машин пытается уничтожить Зион, его жители из последних сил держат оборону. Но удастся ли им предотвратить полное вторжение в город кишащей орды беспощадных машин до того, как Нео соберет все свои силы и положит конец войне?

rating

Продолжительность: 02:09:18

Перевод: Дублированный, профессиональный (двухголосый, закадровый), авторский (одноголосый, закадровый)
Субтитры: Русские, английские, украинские

Качество: UHD BDRip 2160p
Формат: MKV

Видео: H.265/HEVC, 3840x1600, (2.40:1), ~26.7 Mbps, 23.976 fps
Аудио 1: AC3, 6 ch, 640 kbps - Русский (Дублированный)
Аудио 2: DTS-HD MA, 6 ch, 2428 kbps - Русский (DVO - П.Гланц, И.Королёва)
Аудио 3: DTS-HD MA, 6 ch, 2428 kbps - Русский (AVO - А.Гаврилов)
Аудио 4: DTS, 6 ch, 1509 kbps - Русский (AVO - Ю.Живов)
Аудио 5: AC3, 6 ch, 448 kbps - Украинский (MVO - Тak Тreba)
Аудио 6: AC3, 6 ch, 448 kbps - Украинский (MVO 1+1)
Аудио 7: TrueHD, 8 ch, 3527 kbps - Английский
Аудио 8: AC3, 6 ch, 640 kbps - Английский
скриншот  скриншот  скриншот  скриншот  

General
Unique ID : 158806198938972988869521899200879628330 (0x7778F61D9865A689B86DC60020F1902A)
Complete name : S:TH_MTRX_RVLTNS_2003_UHD-BDRip_HDR_BT2020_x265_2160p -BLUEBIRD.mkv
Format : Matroska
Format version : Version 4
File size : 35.1 GiB
Duration : 2 h 9 min
Overall bit rate mode : Variable
Overall bit rate : 38.8 Mb/s
Movie name : The Matrix Revolutions (2003) UHD-BDRip_HDR_BT2020_x265_2160p -BLUEBIRD
Encoded date : UTC 2018-11-10 02:51:29
Writing application : mkvmerge v28.2.0 ('The Awakening') 64-bit
Writing library : libebml v1.3.6 + libmatroska v1.4.9
Attachments : 95720.png

Video
ID : 1
Format : HEVC
Format/Info : High Efficiency Video Coding
Commercial name : HDR10
Format profile : Main 10@L5.1@High
Codec ID : V_MPEGH/ISO/HEVC
Duration : 2 h 9 min
Bit rate : 26.7 Mb/s
Width : 3 840 pixels
Height : 1 600 pixels
Display aspect ratio : 2.40:1
Frame rate mode : Constant
Frame rate : 23.976 (24000/1001) FPS
Color space : YUV
Chroma subsampling : 4:2:0 (Type 2)
Bit depth : 10 bits
Bits/(Pixel*Frame) : 0.181
Stream size : 24.1 GiB (69%)
Title : TH_MTRX_RVLTNS_2003_UHD-BDRip_HDR_BT2020_x265_2160p -BLUEBIRD
Writing library : x265 2.9+4-471726d3a046:[Windows][MSVC 1915][64 bit] 10bit
Encoding settings : cpuid=1111039 / frame-threads=4 / numa-pools=32 / wpp / no-pmode / no-pme / no-psnr / no-ssim / log-level=2 / input-csp=1 / input-res=3840x1600 / interlace=0 / total-frames=185954 / level-idc=51 / high-tier=1 / uhd-bd=0 / ref=4 / no-allow-non-conformance / repeat-headers / annexb / no-aud / no-hrd / info / hash=0 / no-temporal-layers / no-open-gop / min-keyint=24 / keyint=240 / gop-lookahead=0 / bframes=8 / b-adapt=2 / b-pyramid / bframe-bias=0 / rc-lookahead=60 / lookahead-slices=1 / scenecut=40 / radl=0 / no-intra-refresh / ctu=64 / min-cu-size=8 / rect / amp / max-tu-size=32 / tu-inter-depth=1 / tu-intra-depth=1 / limit-tu=0 / rdoq-level=1 / dynamic-rd=0.00 / no-ssim-rd / signhide / no-tskip / nr-intra=1536 / nr-inter=1536 / constrained-intra / strong-intra-smoothing / max-merge=5 / limit-refs=3 / limit-modes / me=3 / subme=7 / merange=92 / temporal-mvp / weightp / weightb / no-analyze-src-pics / deblock=-2:-2 / no-sao / no-sao-non-deblock / rd=5 / no-early-skip / no-rskip / no-fast-intra / no-tskip-fast / no-cu-lossless / b-intra / no-splitrd-skip / rdpenalty=0 / psy-rd=2.12 / psy-rdoq=2.17 / rd-refine / no-lossless / cbqpoffs=0 / crqpoffs=0 / rc=crf / crf=16.8 / qcomp=0.62 / qpstep=4 / stats-write=0 / stats-read=0 / vbv-maxrate=160000 / vbv-bufsize=160000 / vbv-init=0.9 / crf-max=0.0 / crf-min=0.0 / ipratio=1.40 / pbratio=1.30 / aq-mode=1 / aq-strength=0.90 / cutree / zone-count=1 / zones: / start-frame=172885 / end-frame=185954 / qp=25 / no-strict-cbr / qg-size=32 / no-rc-grain / qpmax=69 / qpmin=0 / no-const-vbv / sar=1 / overscan=0 / videoformat=5 / range=0 / colorprim=9 / transfer=16 / colormatrix=9 / chromaloc=1 / chromaloc-top=2 / chromaloc-bottom=2 / display-window=0 / master-display=G(8500,39850)B(6550,2300)R(35400,14600)WP(15635,16450)L(10000000,1) / max-cll=996,249 / min-luma=0 / max-luma=1023 / log2-max-poc-lsb=8 / vui-timing-info / vui-hrd-info / slices=1 / no-opt-qp-pps / no-opt-ref-list-length-pps / no-multi-pass-opt-rps / scenecut-bias=0.05 / no-opt-cu-delta-qp / no-aq-motion / hdr / hdr-opt / no-dhdr10-opt / no-idr-recovery-sei / analysis-reuse-level=8 / scale-factor=0 / refine-intra=0 / refine-inter=0 / refine-mv=0 / no-limit-sao / ctu-info=0 / no-lowpass-dct / refine-mv-type=0 / copy-pic=1 / max-ausize-factor=1.0 / no-dynamic-refine / no-single-sei
Default : Yes
Forced : No
Color range : Limited
Color primaries : BT.2020
Transfer characteristics : PQ
Matrix coefficients : BT.2020 non-constant
Mastering display color pri : BT.2020
Mastering display luminance : min: 0.0001 cd/m2, max: 1000 cd/m2
Maximum Content Light Level : 996 cd/m2
Maximum Frame-Average Light : 249 cd/m2

Audio #1
ID : 2
Format : AC-3
Format/Info : Audio Coding 3
Commercial name : Dolby Digital
Codec ID : A_AC3
Duration : 2 h 9 min
Bit rate mode : Constant
Bit rate : 640 kb/s
Channel(s) : 6 channels
Channel layout : L R C LFE Ls Rs
Sampling rate : 48.0 kHz
Frame rate : 31.250 FPS (1536 SPF)
Bit depth : 16 bits
Compression mode : Lossy
Stream size : 592 MiB (2%)
Title : Дубляж
Language : Russian
Service kind : Complete Main
Default : Yes
Forced : No

Audio #2
ID : 3
Format : DTS XLL
Format/Info : Digital Theater Systems
Commercial name : DTS-HD Master Audio
Codec ID : A_DTS
Duration : 2 h 9 min
Bit rate mode : Variable
Bit rate : 2 428 kb/s
Channel(s) : 6 channels
Channel layout : C L R Ls Rs LFE
Sampling rate : 48.0 kHz
Frame rate : 93.750 FPS (512 SPF)
Bit depth : 16 bits
Compression mode : Lossless
Stream size : 2.19 GiB (6%)
Title : DVO [Glanc & Koroleva]
Language : Russian
Default : No
Forced : No

Audio #3
ID : 4
Format : DTS XLL
Format/Info : Digital Theater Systems
Commercial name : DTS-HD Master Audio
Codec ID : A_DTS
Duration : 2 h 9 min
Bit rate mode : Variable
Bit rate : 2 428 kb/s
Channel(s) : 6 channels
Channel layout : C L R Ls Rs LFE
Sampling rate : 48.0 kHz
Frame rate : 93.750 FPS (512 SPF)
Bit depth : 16 bits
Compression mode : Lossless
Stream size : 2.19 GiB (6%)
Title : VO [Gavrilov]
Language : Russian
Default : No
Forced : No

Audio #4
ID : 5
Format : DTS
Format/Info : Digital Theater Systems
Codec ID : A_DTS
Duration : 2 h 9 min
Bit rate mode : Constant
Bit rate : 1 509 kb/s
Channel(s) : 6 channels
Channel layout : C L R Ls Rs LFE
Sampling rate : 48.0 kHz
Frame rate : 93.750 FPS (512 SPF)
Bit depth : 16 bits
Compression mode : Lossy
Stream size : 1.36 GiB (4%)
Title : VO [Zhivov]
Language : Russian
Default : No
Forced : No

Audio #5
ID : 6
Format : AC-3
Format/Info : Audio Coding 3
Commercial name : Dolby Digital
Codec ID : A_AC3
Duration : 2 h 9 min
Bit rate mode : Constant
Bit rate : 448 kb/s
Channel(s) : 6 channels
Channel layout : L R C LFE Ls Rs
Sampling rate : 48.0 kHz
Frame rate : 31.250 FPS (1536 SPF)
Bit depth : 16 bits
Compression mode : Lossy
Stream size : 414 MiB (1%)
Title : MVO [TakTreba]
Language : Ukrainian
Service kind : Complete Main
Default : No
Forced : No

Audio #6
ID : 7
Format : AC-3
Format/Info : Audio Coding 3
Commercial name : Dolby Digital
Codec ID : A_AC3
Duration : 2 h 9 min
Bit rate mode : Constant
Bit rate : 448 kb/s
Channel(s) : 6 channels
Channel layout : L R C LFE Ls Rs
Sampling rate : 48.0 kHz
Frame rate : 31.250 FPS (1536 SPF)
Bit depth : 16 bits
Compression mode : Lossy
Stream size : 414 MiB (1%)
Title : MVO [1+1]
Language : Ukrainian
Service kind : Complete Main
Default : No
Forced : No

Audio #7
ID : 8
Format : MLP FBA 16-ch
Format/Info : Meridian Lossless Packing FBA with 16-channel presentation
Commercial name : Dolby TrueHD with Dolby Atmos
Codec ID : A_TRUEHD
Duration : 2 h 9 min
Bit rate mode : Variable
Bit rate : 3 527 kb/s
Maximum bit rate : 6 264 kb/s
Channel(s) : 8 channels
Channel layout : L R C LFE Ls Rs Lb Rb
Sampling rate : 48.0 kHz
Frame rate : 1 200.000 FPS (40 SPF)
Compression mode : Lossless
Stream size : 3.18 GiB (9%)
Language : English
Default : No
Forced : No
Number of dynamic objects : 11
Bed channel count : 1 channel
Bed channel configuration : LFE

Audio #8
ID : 9
Format : AC-3
Format/Info : Audio Coding 3
Commercial name : Dolby Digital
Codec ID : A_AC3
Duration : 2 h 9 min
Bit rate mode : Constant
Bit rate : 640 kb/s
Channel(s) : 6 channels
Channel layout : L R C LFE Ls Rs
Sampling rate : 48.0 kHz
Frame rate : 31.250 FPS (1536 SPF)
Bit depth : 16 bits
Compression mode : Lossy
Stream size : 592 MiB (2%)
Language : English
Service kind : Complete Main
Default : No
Forced : No

Text #1
ID : 10
Format : UTF-8
Codec ID : S_TEXT/UTF8
Codec ID/Info : UTF-8 Plain Text
Duration : 2 h 8 min
Bit rate : 60 b/s
Count of elements : 1085
Stream size : 57.3 KiB (0%)
Title : full
Language : Russian
Default : Yes
Forced : No

Text #2
ID : 11
Format : UTF-8
Codec ID : S_TEXT/UTF8
Codec ID/Info : UTF-8 Plain Text
Duration : 1 h 59 min
Bit rate : 65 b/s
Count of elements : 1083
Stream size : 57.2 KiB (0%)
Title : full
Language : Ukrainian
Default : No
Forced : No

Text #3
ID : 12
Format : UTF-8
Codec ID : S_TEXT/UTF8
Codec ID/Info : UTF-8 Plain Text
Duration : 2 h 7 min
Bit rate : 39 b/s
Count of elements : 1110
Stream size : 37.5 KiB (0%)
Title : SDH
Language : English
Default : No
Forced : No

Text #4
ID : 13
Format : UTF-8
Codec ID : S_TEXT/UTF8
Codec ID/Info : UTF-8 Plain Text
Duration : 1 h 58 min
Bit rate : 42 b/s
Count of elements : 1072
Stream size : 36.6 KiB (0%)
Title : full
Language : English
Default : No
Forced : No

Menu
00:00:00.000 : :00:00:00.000
00:03:55.235 : :00:03:55.235
00:07:32.952 : :00:07:32.952
00:10:19.786 : :00:10:19.786
00:14:44.300 : :00:14:44.300
00:17:58.577 : :00:17:58.577
00:23:33.078 : :00:23:33.078
00:30:06.138 : :00:30:06.138
00:35:35.467 : :00:35:35.467
00:39:34.038 : :00:39:34.038
00:42:58.743 : :00:42:58.743
00:46:43.134 : :00:46:43.134
00:49:02.523 : :00:49:02.523
00:51:53.527 : :00:51:53.527
00:58:00.560 : :00:58:00.560
01:00:19.032 : :01:00:19.032
01:02:29.746 : :01:02:29.746
01:08:00.827 : :01:08:00.827
01:10:29.142 : :01:10:29.142
01:14:33.719 : :01:14:33.719
01:18:23.282 : :01:18:23.282
01:23:08.901 : :01:23:08.901
01:25:55.734 : :01:25:55.734
01:29:13.265 : :01:29:13.265
01:31:51.589 : :01:31:51.589
01:36:51.389 : :01:36:51.389
01:41:55.192 : :01:41:55.192
01:44:53.037 : :01:44:53.037
01:48:06.563 : :01:48:06.563
01:51:30.767 : :01:51:30.767
01:55:05.816 : :01:55:05.816
01:57:31.127 : :01:57:31.127
02:00:12.288 : :02:00:12.288



Скачать Матрица: Трилогия через торрент https://b.radikal.ru/b35/1812/50/29918fbb440c.jpg Скачать, смотреть онлайн Матрица: Трилогия бесплантно в хорошем качестве Описание: Фильм изображает будущее, в котором реальность, существующая для большинства людей, - есть в действительности симуляция, ... 9.2 10 27
Info! Золотая раздача, скачанное не засчитывается.
Торрент: Зарегистрирован [2019-07-31 09:00] · скачан: 667 раз
Статус: √ проверено
Размер: 100.57 GB
Как cкачать? Как скачать Матрица: Трилогия через торрент | UTorrent

% Раздел Тема Автор DL S | L
Сборники и Сиквелы (48-60 fps) [ 36.11 GB ] Матрица: Трилогия / The Matrix: Trilogy | MVO | 720p / 60 FPS, Dub, MVO, DVO, AVO, VO, Original Tiberiumsun69 Скачать
2 | 0
Сборники (HD Video) [ 13.58 GB ] Матрица: Трилогия / The Matrix: Trilogy | DUB | 720p от Leonardo and Scarabey Ворон Скачать
4 | 1
Сборники (HD Video) [ 23.29 GB ] Матрица: Трилогия / The Matrix: Trilogy | Дубляж | 1080p, Дубляж, лицензия Зайчина Скачать
1 | 0
Сборники и Сиквелы (48-60 fps) [ 11.94 GB ] Матрица : Трилогия / The Matrix : Trilogy [1999-2003, США, Австралия, фантастика, боевик, BDRip-AVC 60fps, Дубляж | Дубляж | BDRip-AVC 60fps, Дубляж Tiberiumsun69 Скачать
2 | 0
Сборники и Сиквелы (48-60 fps) [ 38.81 GB ] Матрица: Трилогия / The Matrix: Trilogy | Дубляж | 1080p / 60 FPS Tiberiumsun69 Скачать
2 | 0
Сборники (HD Video) [ 43.24 GB ] Матрица: Трилогия / The Matrix Trilogy | DUB | 1080p, DUB akcent Скачать
1 | 0
Сборники на DVD и Сиквелы [DVDrip, WEB-DLRip, HDrip, BDRip] [ 7.81 GB ] Матрица: Трилогия / The Matrix: Trilogy | | BDRip nikolay27rus Скачать
1 | 0

28-11-2019 20:33  


Отключить вcю реклaмy на сайте, в т.ч. и в плеере онлайн просмотра!

17-12-2021 16:34 Матрица: Трилогия Скачать торрент  

СПАСИБО!!!



    Дорогой пользователь! Огромная просьба, поблагодарите релизера, оцените раздачу и оставьте свои комментарий, если Вы скачали Матрица: Трилогия через торрент бесплатно!!
    Комментировать посты могут только пользователи прошедшие не сложную регистрацию
    Показать сообщения:    


    Матрица: Трилогия через торрент
    Скачать бесплатно Матрица: Трилогия
    Матрица: Трилогия скачать торрент
    Матрица: Трилогия смотреть онлайн
    Cкачать фильм Матрица: Трилогия бесплатно
    Матрица: Трилогия скачать торрент в хорошем качестве
    Матрица: Трилогия смотреть онлайн бесплатно в хорошем качестве
    Вы не можете начинать темы
    Вы не можете отвечать на сообщения
    Вы не можете редактировать свои сообщения
    Вы не можете удалять свои сообщения
    Вы не можете голосовать в опросах
    Вы не можете прикреплять файлы к сообщениям
    Вы можете скачивать файлы
    Матрица: Трилогия / The Matrix: Trilogy [1999-2003, Боевик, Фантастика, Приключения, UHD BDRip 2160p] смотреть онлайн, скачать торрент picoco.icu