новый адрес
Ссылка на приватное зеркало всего за 1$. Внимание количество ограничено!!!

iTunes

1+1

iTunes

мы

WEB-DL

1

iTunes

Чернобыль

iTunes

Ральф против интернета

Лицензия

ПШазам

Лицензия

Оно 2

Лицензия

30
pack

Вам бонус

ВАЖНО

!!Акция!!

Alien_RageХит недели

RePack

Resident Evil 21

ИГРА 18+

pack

RePack

jed

!!Акция!!

Alien_Rage

RePack

fifa19

RePack

Assassins Creed: Odyssey

RePack

NEED FOR SPEED™ PAYBACK

3 сезон

9 сезон

Бесстыжие 9 сезон

Все сериалы

все сериалы на PB.wtf

RePack

FAR CRY 5
Ребята, катастрофически не хватает 1900р. для оплаты серверов за Октябрь (всвязи с блокировками трафик упал в 3 раза), 1-2р., выручайте.
  

Evanescence - Synthesis Live (Пи-Ар Браун, Крейг Зиогас) [2018, Alternative Metal, Gothic Metal, BD Remux 1080p] piratbit.org

Evanescence - Synthesis Live через торрент piratbit.org

Размер: 19.95 GB | Добавлен: 4 мес. 11 д. назад | Торрент скачан:18 раз
Скачать  

31-07-2019 15:21 Evanescence - Synthesis Live Скачать торрент  

Evanescence - Synthesis Live
Год выпуска: 2018
Страна: Англия
Жанр: Alternative Metal, Gothic Metal
Продолжительность: 01:23:19
Перевод: Оригинальный
Субтитры: отсутствуют

Режиссер: Пи-Ар Браун, Крейг Зиогас

В ролях: Evanescence, Эми Ли, Тим Маккорд, Уилл Хант, Трой Маклоухорн, Джен Маджура, Франческо Дискомо, Джош Фриз

Описание: Песни релиза охватывают всю 20-летнюю историю EVANESCENCE, но теперь они звучат по-новому – с полным оркестром и многослойными электронными подложками. "Synthesis" – это душевное и захватывающе грандиозное представление. Сидящая за пианино Эми Ли (Amy Lee) открывает сет одной нотой, из которой выстраивается инструментальная "Overture", а за ней без каких-либо перерывов следует сокрушительная волна в виде "Never Go Back". "Bring Me To Life", с которой многие открыли для себя EVANESCENCE, выведена здесь на новый уровень мощи и эмоций с помощью грохочущего электронного сердцебиения и парящего оркестрового аккомпанемента, а такие песни, как "My Immortal", "Lithium" и "Lost In Paradise", кажутся разрывающими сердце сценами из какого-нибудь красивого фильма, не подверженного влиянию времени.

Качество: BD Remux 1080p
Формат: MKV

Видео: MPEG-4 AVC, 29994 Кбит/с, 1920x1080
Аудио#1: Английский DTS-HD, 6 ch, 2884 Кбит/с
Аудио#2: Английский LPCM, 2 ch, 1536 Кбит/с
01. Overture
02. Never Go Back
03. Lacrymosa
04. The End Of The Dream
05. My Heart Is Broken
06. Lithium
07. Bring Me To Life
08. Unravelling (Interlude)
09. Imaginary
10. Secret Door
11. Hi-Lo
12. Lost In Paradise
13. Your Star
14. My Immortal
15. The In-Between (Piano Solo)
16. Imperfection
17. Speak To Me
18. Good Enough
19. Swimming Home

скриншот  скриншот  скриншот  скриншот  

General
Unique ID : 88123102806767634809913129991499905883 (0x424BE46A6A9F7C0B91CDC3044B5F7B5B)
Complete name : E:\VIDEO\Evanescence-Synthesis.Live.2018.H264.Blu-Ray.Remux(1080p)_igorek77.mkv
Format : Matroska
Format version : Version 4
File size : 19.9 GiB
Duration : 1 h 23 min
Overall bit rate mode : Variable
Overall bit rate : 34.3 Mb/s
Movie name : Evanescence - Synthesis Live / 2018 (igorek77)
Encoded date : UTC 2019-02-16 10:40:09
Writing application : mkvmerge v30.1.0 ('Forever And More') 64-bit
Writing library : libebml v1.3.6 + libmatroska v1.4.9
Cover : Yes
Attachments : cover

Video
ID : 1
Format : AVC
Format/Info : Advanced Video Codec
Format profile : High@L4.1
Format settings : CABAC / 4 Ref Frames
Format settings, CABAC : Yes
Format settings, ReFrames : 4 frames
Codec ID : V_MPEG4/ISO/AVC
Duration : 1 h 23 min
Bit rate mode : Variable
Bit rate : 29.9 Mb/s
Maximum bit rate : 33.0 Mb/s
Width : 1 920 pixels
Height : 1 080 pixels
Display aspect ratio : 16:9
Frame rate mode : Constant
Frame rate : 23.976 (24000/1001) FPS
Color space : YUV
Chroma subsampling : 4:2:0
Bit depth : 8 bits
Scan type : Progressive
Bits/(Pixel*Frame) : 0.600
Stream size : 17.4 GiB (87%)
Default : Yes
Forced : No

Audio #1
ID : 2
Format : DTS XLL
Format/Info : Digital Theater Systems
Commercial name : DTS-HD Master Audio
Codec ID : A_DTS
Duration : 1 h 23 min
Bit rate mode : Variable
Bit rate : 2 884 kb/s
Channel(s) : 6 channels
Channel layout : C L R Ls Rs LFE
Sampling rate : 48.0 kHz
Frame rate : 93.750 FPS (512 SPF)
Bit depth : 16 bits
Compression mode : Lossless
Stream size : 1.68 GiB (8%)
Language : English
Default : Yes
Forced : No

Audio #2
ID : 3
Format : PCM
Format settings : Little / Signed
Codec ID : A_PCM/INT/LIT
Duration : 1 h 23 min
Bit rate mode : Constant
Bit rate : 1 536 kb/s
Channel(s) : 2 channels
Sampling rate : 48.0 kHz
Frame rate : 32.000 FPS (1500 SPF)
Bit depth : 16 bits
Stream size : 915 MiB (4%)
Language : English
Default : No
Forced : No

Menu
00:00:00.000 : en:(01)00:00:00:000
00:01:28.088 : en:(02)00:01:28:088
00:06:33.393 : en:(03)00:06:33:393
00:10:01.601 : en:(04)00:10:01:601
00:15:17.541 : en:(05)00:15:17:541
00:20:08.498 : en:(06)00:20:08:498
00:24:23.587 : en:(07)00:24:23:587
00:28:40.719 : en:(08)00:28:40:719
00:30:20.068 : en:(09)00:30:20:068
00:34:37.075 : en:(10)00:34:37:075
00:38:53.331 : en:(11)00:38:53:331
00:43:57.384 : en:(12)00:43:57:384
00:48:40.918 : en:(13)00:48:40:918
00:53:47.432 : en:(14)00:53:47:432
00:58:28.505 : en:(15)00:58:28:505
01:00:23.620 : en:(16)01:00:23:620
01:05:16.579 : en:(17)01:05:16:579
01:11:49.305 : en:(18)01:11:49:305
01:17:27.768 : en:(19)01:17:27:768
01:23:19.160 : en:(20)01:23:19:160

piratbit.org



Скачать Evanescence - Synthesis Live через торрент http://i77.fastpic.ru/big/2018/1015/1c/98ac046e2cabd9f8fedd0d7f2319491c.jpg Скачать фильм Evanescence - Synthesis Live через торрент бесплантно в хорошем качестве Описание: Песни релиза охватывают всю 20-летнюю историю EVANESCENCE, но теперь они звучат по-новому – с полным оркестром и многослойными ... 10 10 4
Info! Золотая раздача, скачанное не засчитывается.
Торрент: Зарегистрирован [2019-07-31 15:21] · скачан: 18 раз
Статус: √ проверено
Размер: 19.95 GB
Как cкачать? Как скачать Evanescence - Synthesis Live через торрент | qTorrent

% Раздел Тема Автор DL S | L
Alternative & Nu-metal (lossless) [ 556 MB ] Evanescence - Synthesis Live [Japanese Edition] 2018 / FLAC / Lossless / Alternative Metal Gothic Metal bober100 Скачать
1 | 0
Alternative & Nu-metal (mp3) [ 180 MB ] Evanescence - Synthesis Live 2018 / MP3 / 320 kbps / Alternative Metal Gothic Metal bober100 Скачать
1 | 0

28-11-2019 20:33  

Отключить всю рекламу на сайте

    Дорогой пользователь! Огромная просьба, поблагодарите релизера, оцените раздачу и оставьте свои комментарий, если Вы скачали Evanescence - Synthesis Live через торрент бесплатно! Внесите свою лепту в развитие PiratBit!
    Комментировать посты могут только пользователи прошедшие не сложную регистрацию
    Показать сообщения:    

    Evanescence - Synthesis Live через торрент
    Скачать бесплатно Evanescence - Synthesis Live
    Evanescence - Synthesis Live скачать торрент
    Evanescence - Synthesis Live смотреть онлайн
    Cкачать фильм Evanescence - Synthesis Live бесплатно
    Evanescence - Synthesis Live скачать торрент в хорошем качестве
    Evanescence - Synthesis Live смотреть онлайн бесплатно в хорошем качестве


    Вы не можете начинать темы
    Вы не можете отвечать на сообщения
    Вы не можете редактировать свои сообщения
    Вы не можете удалять свои сообщения
    Вы не можете голосовать в опросах
    Вы не можете прикреплять файлы к сообщениям
    Вы можете скачивать файлы