Достать ножи: Стеклянная луковица

MVO

Добыча

Дубляж

Уэнсдэй

1 сезон

Тор

Дубляж

13 клиническая

1 сезон

Жестокая ночь

MVO

Одни из нас

1 сезон

Deluxe

pack

Рекомендуем

30

Пиратка

ВАЖНО

ВАЖНО

Ghostwire

Пиратка

jed

RePack

nioh2

RePack

RDR2

RePack

NEED FOR SPEED™ PAYBACK

RePack

скачать торрент

Кинопоиск HD

Острые козырьки 6 сезон

6 сезон

FAR CRY 6

RePack

скачать торрент

Лицензия

скачать торрент

MVO

1

1 сезон

скачать торрент

1 сезон

скачать торрент

Лицензия

  

Перспектива / Prospect (Кристофер Колдуэлл, Зик Эрл) [2018, фантастика, триллер, драма, UHD BDRemux 2160p] MVO [HDRezka]

Перспектива через торрент piratbit.org

Качают: 1 [ 0 KB/s ]
Размер: 41.2 GB | Добавлен: 3 года 6 мес. назад | Торрент скачан:56 раз
Смотреть онлайн | Скачать | Поддержите нас   

01-08-2019 01:28 Перспектива Скачать торрент  

Перспектива / Prospect««No One Survives Alone»»

Год выпуска: 2018
Страна: Канада, США
Жанр: фантастика, триллер, драма
Продолжительность: 01:39:48
Перевод: Профессиональный многоголосый | HDRezka
Субтитры: Английские, немецкие
Режиссер: Кристофер Колдуэлл, Зик Эрл

В ролях:

Софи Тэтчер (Cee), Педро Паскаль (Ezra), Джей Дюпласс (Damon), Luke Pitzrick (Number Two), Arthur Deranleau (Fahr), Андре Ройо (Oruf), Alex McCauley (Bahr), Doug Dawson (Heshir), Krista Johnson (Gali), Brian Gunter (Mesur), Шейла Ванд (Inumon), Анван Гловер (Mikken)
Описание:
Отец с дочерью отправляются на отдалённую планету, где планируют собирать драгоценные камни, сокрытые в глубине лесов. Добыв один, они натыкаются на двух опасных конкурентов. Из-за недопонимания и жадности между ними происходит перестрелка, в результате которой один из встреченных и отец погибают. Теперь, чтобы выжить на враждебной планете с ядовитой атмосферой, девушке придётся сотрудничать с оставшимся в живых незнакомцем.
Рейтинг:

MPAA: R - Лицам до 17 лет обязательно присутствие взрослого
Качество: UHD BDRemux 2160p
Формат: MKV
Видео: HEVC HDR, 53.2 Mбит/с, 3840x2160, 23.976 кадр/с
Аудио #1: 48 kHz, AC3, 6ch, ~448.00 kbps avg /RUS/HDRezka
Аудио #2: 48 kHz, DTS-HD MA, 6ch, ~1800.00 kbps avg /ENG/ Оригинал
Аудио #3: 48 kHz, DTS-HD MA, 6ch, ~3620.00 kbps avg /GER/ Дубляж
Навигация по главам: есть

Дорожка Аудио #1: получена методом замены участков с английской речью в центральном канале оригинала, на аналогичные с микшированной дорожки HDRezka. Работа со звуком potroks .
Complete name : E:\Prospect.2018.2160p.BluRay.REMUX.HEVC.Rus.Eng-SHD13.mkv
Format : Matroska
Format version : Version 4
File size : 41.2 GiB
Duration : 1 h 39 min
Overall bit rate mode : Variable
Overall bit rate : 59.1 Mb/s
Movie name : Prospect.2018.2160p.BluRay.REMUX.HEVC.Rus.Eng-SHD13
Encoded date : UTC 2019-07-29 20:53:51
Writing application : mkvmerge v34.0.0 ('Sight and Seen') 64-bit
Writing library : libebml v1.3.7 + libmatroska v1.5.0
Attachments : poster.png

Video
ID : 1
Format : HEVC
Format/Info : High Efficiency Video Coding
Format profile : Main 10@L5.1@High
HDR format : SMPTE ST 2086, HDR10 compatible
Codec ID : V_MPEGH/ISO/HEVC
Duration : 1 h 39 min
Bit rate : 53.2 Mb/s
Width : 3 840 pixels
Height : 2 160 pixels
Display aspect ratio : 16:9
Frame rate mode : Constant
Frame rate : 23.976 (24000/1001) FPS
Color space : YUV
Chroma subsampling : 4:2:0 (Type 2)
Bit depth : 10 bits
Bits/(Pixel*Frame) : 0.268
Stream size : 37.1 GiB (90%)
Title : Prospect.2018.2160p.BluRay.REMUX.HEVC.Rus.Eng-SHD13
Language : Russian
Default : No
Forced : No
Color range : Limited
Color primaries : BT.2020
Transfer characteristics : PQ
Matrix coefficients : BT.2020 non-constant
Mastering display color pri : Display P3
Mastering display luminance : min: 0.0050 cd/m2, max: 1000 cd/m2
Maximum Content Light Level : 1000 cd/m2
Maximum Frame-Average Light : 516 cd/m2

Audio #1
ID : 2
Format : AC-3
Format/Info : Audio Coding 3
Commercial name : Dolby Digital
Codec ID : A_AC3
Duration : 1 h 39 min
Bit rate mode : Constant
Bit rate : 448 kb/s
Channel(s) : 6 channels
Channel layout : L R C LFE Ls Rs
Sampling rate : 48.0 kHz
Frame rate : 31.250 FPS (1536 SPF)
Bit depth : 16 bits
Compression mode : Lossy
Stream size : 320 MiB (1%)
Title : MVO | HDRezka | 5.1
Language : Russian
Service kind : Complete Main
Default : No
Forced : No

Audio #2
ID : 3
Format : DTS XLL
Format/Info : Digital Theater Systems
Commercial name : DTS-HD Master Audio
Codec ID : A_DTS
Duration : 1 h 39 min
Bit rate mode : Variable
Bit rate : 1 800 kb/s
Channel(s) : 6 channels
Channel layout : C L R Ls Rs LFE
Sampling rate : 48.0 kHz
Frame rate : 93.750 FPS (512 SPF)
Bit depth : 16 bits
Compression mode : Lossless
Stream size : 1.25 GiB (3%)
Language : English
Default : Yes
Forced : No

Audio #3
ID : 4
Format : DTS XLL
Format/Info : Digital Theater Systems
Commercial name : DTS-HD Master Audio
Codec ID : A_DTS
Duration : 1 h 39 min
Bit rate mode : Variable
Bit rate : 3 620 kb/s
Channel(s) : 6 channels
Channel layout : C L R Ls Rs LFE
Sampling rate : 48.0 kHz
Frame rate : 93.750 FPS (512 SPF)
Bit depth : 24 bits
Compression mode : Lossless
Stream size : 2.52 GiB (6%)
Language : German
Default : No
Forced : No

Text #1
ID : 5
Format : UTF-8
Codec ID : S_TEXT/UTF8
Codec ID/Info : UTF-8 Plain Text
Duration : 1 h 38 min
Bit rate : 30 b/s
Count of elements : 974
Stream size : 22.3 KiB (0%)
Title : FULL
Language : English
Default : Yes
Forced : No

Text #2
ID : 6
Format : PGS
Muxing mode : zlib
Codec ID : S_HDMV/PGS
Codec ID/Info : Picture based subtitle format used on BDs/HD-DVDs
Duration : 1 h 28 min
Bit rate : 27.3 kb/s
Count of elements : 1474
Stream size : 17.2 MiB (0%)
Title : FORCED
Language : German
Default : No
Forced : No

Text #3
ID : 7
Format : PGS
Muxing mode : zlib
Codec ID : S_HDMV/PGS
Codec ID/Info : Picture based subtitle format used on BDs/HD-DVDs
Duration : 1 s 1 ms
Bit rate : 4 771 b/s
Count of elements : 2
Stream size : 597 Bytes (0%)
Title : FULL
Language : German
Default : No
Forced : No

Menu
00:00:00.000 : en:Chapter 01
00:07:43.629 : en:Chapter 02
00:13:02.531 : en:Chapter 03
00:20:54.795 : en:Chapter 04
00:27:59.761 : en:Chapter 05
00:35:11.275 : en:Chapter 06
00:46:54.228 : en:Chapter 07
00:54:41.736 : en:Chapter 08
01:02:19.402 : en:Chapter 09
01:12:29.428 : en:Chapter 10
01:20:09.221 : en:Chapter 11
01:28:26.968 : en:Chapter 12



Скачать Перспектива через торрент https://c.radikal.ru/c18/1907/1b/a616e9c97cf3.png Скачать, смотреть онлайн Перспектива бесплантно в хорошем качестве Описание: Отец с дочерью отправляются на отдалённую планету, где планируют собирать драгоценные камни, сокрытые в глубине лесов. Добыв ... 8.2 10 5
Торрент: Зарегистрирован [2019-08-01 01:28] · скачан: 56 раз
Статус: √ проверено
Размер: 41.2 GB
Как cкачать? Как скачать Перспектива через торрент | UTorrent

% Раздел Тема Автор DL S | L
Фильмы 2018 [DVDrip, WEB-DLRip, HDrip] (DUB, MVO) [ 1.42 GB ] Перспектива / Prospect | Лицензия | BDRip Twi7ter Скачать
5 | 0
Фильмы 2018 [DVDrip, WEB-DLRip, HDrip] (DUB, MVO) [ 2.18 GB ] Перспектива / Prospect | iTunes | HDRip killermax2013 Скачать
1 | 0
Фильмы 2018 [DVDrip, WEB-DLRip, HDrip] (DUB, MVO) [ 746 MB ] Перспектива / Prospect | iTunes | HDRip killermax2013 Скачать
1 | 0
Фильмы 2018 [DVDrip, WEB-DLRip, HDrip] (DUB, MVO) [ 1.46 GB ] Перспектива / Prospect | iTunes | BDRip bober100 Скачать
1 | 0
Фильмы [HD 720p, 1080p] (Хороший звук DUB, MVO) [ 5.1 GB ] Перспектива / Prospect | iTunes | 720p bober100 Скачать
1 | 0
Фильмы [HD 720p, 1080p] (Хороший звук DUB, MVO) [ 12.47 GB ] Перспектива / Prospect | iTunes | 1080p bober100 Скачать
1 | 0
Ultra HD (UHD: 2K, 4K, 8K) [ 38.63 GB ] Перспектива / Prospect | iTunes | 2160p bober100 Скачать
1 | 0

28-11-2019 20:33  


Отключить вcю реклaмy на сайте, в т.ч. и в плеере онлайн просмотра!

    Дорогой пользователь! Огромная просьба, поблагодарите релизера, оцените раздачу и оставьте свои комментарий, если Вы скачали Перспектива через торрент бесплатно!!
    Комментировать посты могут только пользователи прошедшие не сложную регистрацию
    Показать сообщения:    


    Перспектива через торрент
    Скачать бесплатно Перспектива
    Перспектива скачать торрент
    Перспектива смотреть онлайн
    Cкачать фильм Перспектива бесплатно
    Перспектива скачать торрент в хорошем качестве
    Перспектива смотреть онлайн бесплатно в хорошем качестве
    Вы не можете начинать темы
    Вы не можете отвечать на сообщения
    Вы не можете редактировать свои сообщения
    Вы не можете удалять свои сообщения
    Вы не можете голосовать в опросах
    Вы не можете прикреплять файлы к сообщениям
    Вы можете скачивать файлы
    Перспектива / Prospect [2018, фантастика, триллер, драма, UHD BDRemux 2160p] MVO [HDRezka] смотреть онлайн, скачать торрент picoco.icu