Доктор Стрэндж

Лицензия

Добыча

Дубляж

Дом дракона

1 сезон

Тор

Дубляж

В эфире

Дубляж

Там, где раки поют

MVO

Властелин колец

1 сезон

Deluxe

pack

Рекомендуем

30

Пиратка

ВАЖНО

ВАЖНО

Ghostwire

Пиратка

jed

RePack

nioh2

RePack

RDR2

RePack

NEED FOR SPEED™ PAYBACK

RePack

скачать торрент

Кинопоиск HD

Острые козырьки 6 сезон

6 сезон

FAR CRY 6

RePack

скачать торрент

Лицензия

скачать торрент

MVO

1

1 сезон

скачать торрент

1 сезон

скачать торрент

Лицензия

  

Домино / Domino (Брайан Де Пальма) [2019 г., триллер, криминал, HDRip, Дубляж "iTunes"]

Домино через торрент piratbit.org

Размер: 703 MB | Добавлен: 3 года 4 мес. назад | Торрент скачан:45 раз
Смотреть онлайн | Скачать   

01-08-2019 18:36 Домино Скачать торрент  

Домино / Domino
Год выпуска: 2019
Страна: Дания, Франция, Италия, Бельгия, Нидерланды / Backup Media, Saban Films, Schønne Film
Жанр: триллер, криминал
Продолжительность: 01:29:16
Перевод: Дубляж (iTunes)
Субтитры: английские форсированные - вшитые

Режиссер: Брайан Де Пальма

rating

В ролях: Кэрис ван Хаутен, Николай Костер-Вальдау, Гай Пирс, Сёрен Маллинг, Николас Бро, Паприка Стеэн, Томас В. Габриэльссон, Эрик Эбони, Якоб Ульрик Ломанн, Элла-Джун Генрард

Описание: Офицер полиции Копенгагена жаждет отомстить за смерть напарника от руки некоего Имрана. Охоту на убийцу он ведёт в компании с любовницей погибшего коллеги. Однако оба они становятся жертвами агента ЦРУ, подставившего Имрана.

Качество: HDRip
Формат: AVI
Видео кодек: XviD
Аудио кодек: MP3
Видео: 640x344 (1.86:1), 23.976 fps, XviD build 50 ~964 kbps avg, 0.18 bit/pixel
Аудио: 48 kHz, MPEG Layer 3, 2 ch, ~128.00 kbps avg
скриншот   скриншот   скриншот   скриншот  

Общее
Полное имя : F:\ФИЛЬМЫ\Домино.2019.D.HDRip.avi
Формат : AVI
Формат/Информация : Audio Video Interleave
Размер файла : 703 Мбайт
Продолжительность : 1 ч. 29 м.
Общий поток : 1102 Кбит/сек
Программа кодирования : VirtualDubMod 1.5.10.3 | www.virtualdub-fr.org || (build 2550/release)
Библиотека кодирования : VirtualDubMod build 2550/release

Видео
Идентификатор : 0
Формат : MPEG-4 Visual
Профиль формата : Advanced Simple@L5
Настройки формата : BVOP3 / GMC3 / QPel
Параметр BVOP формата : 3
Параметр QPel формата : Да
Параметр GMC формата : 3 точки перехода
Параметр матрицы формата : Default (MPEG)
Идентификатор кодека : XVID
Идентификатор кодека/Подсказка : XviD
Продолжительность : 1 ч. 29 м.
Битрейт : 964 Кбит/сек
Ширина : 640 пикселей
Высота : 344 пикселя
Соотношение сторон : 1,85:1
Частота кадров : 23,976 (24000/1001) кадра/сек
Цветовое пространство : YUV
Субдискретизация насыщенности : 4:2:0
Битовая глубина : 8 бит
Тип развёртки : Прогрессивная
Метод сжатия : С потерями
Бит/(Пиксели*Кадры) : 0.183
Размер потока : 616 Мбайт (88%)
Библиотека кодирования : XviD 1.2.1 (UTC 2008-12-04)

Аудио
Идентификатор : 1
Формат : MPEG Audio
Версия формата : Version 1
Профиль формата : Layer 3
Настройки формата : Joint stereo / MS Stereo
Идентификатор кодека : 55
Идентификатор кодека/Подсказка : MP3
Продолжительность : 1 ч. 29 м.
Вид битрейта : Постоянный
Битрейт : 128 Кбит/сек
Каналы : 2 канала
Частота : 48,0 КГц
Частота кадров : 41,667 кадра/сек (1152 SPF)
Метод сжатия : С потерями
Размер потока : 81,6 Мбайт (12%)
Выравнивание : Соединение по промежуткам
Продолжительность промежутка : 42 мс. (1,00 видеокадр)
Время предзагрузки промежутка : 504 мс.
Библиотека кодирования : LAME3.99r
Настройки программы : -m j -V 4 -q 2 -lowpass 17 -b 128




Скачать Домино через торрент https://pic1.kartinco.top/images/12/211fq.jpg Скачать, смотреть онлайн Домино бесплантно в хорошем качестве Описание: Офицер полиции Копенгагена жаждет отомстить за смерть напарника от руки некоего Имрана. Охоту на убийцу он ведёт в компании с ... 10 10 2
Торрент: Зарегистрирован [2019-08-01 18:36] · скачан: 45 раз
Статус: √ проверено
Размер: 703 MB
Как cкачать? Как скачать Домино через торрент | UTorrent

% Раздел Тема Автор DL S | L
Фильмы 2019-2020 [DVDrip, WEB-DLRip, HDrip] (DUB, MVO) [ 1.42 GB ] Домино / Domino | Лицензия | BDRip Twi7ter Скачать
1 | 0
Фильмы 2019-2020 [DVDrip, WEB-DLRip, HDrip] (DUB, MVO) [ 1.46 GB ] Домино / Domino | iTunes | BDRip bober100 Скачать
1 | 0
Фильмы [HD 720p, 1080p] (Хороший звук DUB, MVO) [ 4.34 GB ] Домино / Domino | iTunes | 720p bober100 Скачать
1 | 0
Фильмы [HD 720p, 1080p] (Хороший звук DUB, MVO) [ 7.34 GB ] Домино / Domino | iTunes | 1080p bober100 Скачать
1 | 0
Фильмы 2019-2020 [DVDrip, WEB-DLRip, HDrip] (DUB, MVO) [ 2.03 GB ] Домино / Domino | iTunes | BDRip-AVC bober100 Скачать
1 | 0

28-11-2019 20:33  


Отключить вcю реклaмy на сайте, в т.ч. и в плеере онлайн просмотра!

    Дорогой пользователь! Огромная просьба, поблагодарите релизера, оцените раздачу и оставьте свои комментарий, если Вы скачали Домино через торрент бесплатно!!
    Комментировать посты могут только пользователи прошедшие не сложную регистрацию
    Показать сообщения:    


    Домино через торрент
    Скачать бесплатно Домино
    Домино скачать торрент
    Домино смотреть онлайн
    Cкачать фильм Домино бесплатно
    Домино скачать торрент в хорошем качестве
    Домино смотреть онлайн бесплатно в хорошем качестве
    Вы не можете начинать темы
    Вы не можете отвечать на сообщения
    Вы не можете редактировать свои сообщения
    Вы не можете удалять свои сообщения
    Вы не можете голосовать в опросах
    Вы не можете прикреплять файлы к сообщениям
    Вы можете скачивать файлы
    Домино / Domino [2019 г., триллер, криминал, HDRip, Дубляж "iTunes"] смотреть онлайн, скачать торрент picoco.icu