Достать ножи: Стеклянная луковица

MVO

Добыча

Дубляж

Уэнсдэй

1 сезон

Тор

Дубляж

13 клиническая

1 сезон

Жестокая ночь

MVO

Одни из нас

1 сезон

Deluxe

pack

Рекомендуем

30

Пиратка

ВАЖНО

ВАЖНО

Ghostwire

Пиратка

jed

RePack

nioh2

RePack

RDR2

RePack

NEED FOR SPEED™ PAYBACK

RePack

скачать торрент

Кинопоиск HD

Острые козырьки 6 сезон

6 сезон

FAR CRY 6

RePack

скачать торрент

Лицензия

скачать торрент

MVO

1

1 сезон

скачать торрент

1 сезон

скачать торрент

Лицензия

  

Хеллбой / Hellboy (Нил Маршалл) [2019, фэнтези, боевик, приключения, UHD BDRemux 2160p] [Dolby Vision TV] Дубляж (rus, ukr) [iTunes] + MVO [СВ Студия]

Хеллбой через торрент piratbit.org

Размер: 56.96 GB | Добавлен: 3 года 5 мес. назад | Торрент скачан:58 раз
Смотреть онлайн | Скачать | Поддержите нас   

02-08-2019 11:24 Хеллбой Скачать торрент  

Хеллбой / Hellboy««Легенда возвращается»»

Год выпуска: 2019
Страна: США
Жанр: фэнтези, боевик, приключения
Продолжительность: 02:01:00
Перевод: Дублированный, профессиональный многоголосый
Субтитры: Русские (форс.)
Режиссер: Нил Маршалл
В ролях:

Дэвид Харбор (Hellboy), Иэн Макшейн (Professor Broom), Милла Йовович (Nimue / The Blood Queen), Саша Лэйн (Alice Monaghan), Дэниэл Дэ Ким (Major Ben Daimio), Алистэр Петри (Lord Adam Glaren), Софи Оконедо (Lady Hatton), Брин Глисон (Merlin), Томас Хейден Чёрч (Lobster Johnson), Стивен Грэм (Gruagach, озвучка), Марк Стэнли (Arthur), Надя Керанова (Sister)
Описание:
Близится час битвы Хеллбоя с Кровавой королевой, жаждущей отомстить всему человечеству за века в заточении. Оказавшись в эпицентре столкновения миров людей и монстров, Хеллбою придется пройти через ад, чтобы предотвратить надвигающийся апокалипсис.
Рейтинг:

MPAA: R - Лицам до 17 лет обязательно присутствие взрослого
Качество: UHD BDRemux 2160p
Формат: MP4
Видео: HEVC, 66.1 Мбит/с, 3840x2160
Аудио: Русский - 48 kHz, AC3, 5.1, 384 Kbps - Дублированный (iTunes)
Аудио: Русский - 48 kHz, AC3, 2.0, 192 Kbps - Профессиональный многоголосый (СВ Студия)
Аудио: Украинский - 48 kHz, AC3, 2.0, 192 Kbps
Аудио: Английский - 48 kHz, AC3, 5.1, 448 Kbps - Оригинал

Релиз от: > Ivantsov
Тестовый релиз с однопоточным видео для Dolby Vison TV, Включая Sony / LG 2016
General
Complete name : Hellboy.2019.UHD.BDRemux.2160p.DV.TV.IVA.(RUS.UKR.ENG).ExKinoRay.mp4
Format : MPEG-4
Format profile : Base Media / Version 2
Codec ID : mp42 (mp42/isom/dby1)
File size : 57.0 GiB
Duration : 2 h 1 min
Overall bit rate : 67.4 Mb/s
Movie name : Hellboy.2019.UHD.BDRemux.2160p.DV.TV.IVA.(RUS.UKR.ENG).ExKinoRay
Encoded date : UTC 2019-08-01 02:23:24
Tagged date : UTC 2019-08-01 02:41:16
Writing application : IVA.ExKinoRay

Video
ID : 1
Format : HEVC
Format/Info : High Efficiency Video Coding
Format profile : Main 10@L5.1@High
HDR format : Dolby Vision, Version 1.0, dvhe.05.06, BL+RPU / SMPTE ST 2086, HDR10 compatible
Codec ID : dvhe
Codec ID/Info : High Efficiency Video Coding with Dolby Vision
Duration : 2 h 1 min
Bit rate : 66.2 Mb/s
Width : 3 840 pixels
Height : 2 160 pixels
Display aspect ratio : 16:9
Frame rate mode : Constant
Frame rate : 23.976 (24000/1001) FPS
Color space : YUV
Chroma subsampling : 4:2:0 (Type 2)
Bit depth : 10 bits
Bits/(Pixel*Frame) : 0.333
Stream size : 55.9 GiB (98%)
Encoded date : UTC 2019-08-01 02:23:24
Tagged date : UTC 2019-08-01 02:41:10
Color range : Limited
Color primaries : BT.2020
Transfer characteristics : PQ
Matrix coefficients : BT.2020 non-constant
Mastering display color primaries : Display P3
Mastering display luminance : min: 0.0001 cd/m2, max: 4000 cd/m2
Maximum Content Light Level : 3947 cd/m2
Maximum Frame-Average Light Level : 542 cd/m2
Codec configuration box : hvcC+dvcC

Audio #1
ID : 2
Format : AC-3
Format/Info : Audio Coding 3
Commercial name : Dolby Digital
Codec ID : ac-3
Duration : 2 h 1 min
Bit rate mode : Constant
Bit rate : 384 kb/s
Channel(s) : 6 channels
Channel layout : L R C LFE Ls Rs
Sampling rate : 48.0 kHz
Frame rate : 31.250 FPS (1536 SPF)
Bit depth : 16 bits
Compression mode : Lossy
Stream size : 332 MiB (1%)
Title : Russian (ac3 5.1)
Language : Russian
Service kind : Complete Main
Default : Yes
Alternate group : 1
Encoded date : UTC 2019-08-01 02:23:24
Tagged date : UTC 2019-08-01 02:41:10

Audio #2
ID : 3
Format : AC-3
Format/Info : Audio Coding 3
Commercial name : Dolby Digital
Codec ID : ac-3
Duration : 2 h 0 min
Bit rate mode : Constant
Bit rate : 192 kb/s
Channel(s) : 2 channels
Channel layout : L R
Sampling rate : 48.0 kHz
Frame rate : 31.250 FPS (1536 SPF)
Bit depth : 16 bits
Compression mode : Lossy
Stream size : 166 MiB (0%)
Title : Russian (ac3 2.0)
Language : Russian
Service kind : Complete Main
Default : No
Alternate group : 1
Encoded date : UTC 2019-08-01 02:23:24
Tagged date : UTC 2019-08-01 02:41:10

Audio #3
ID : 4
Format : AC-3
Format/Info : Audio Coding 3
Commercial name : Dolby Digital
Codec ID : ac-3
Duration : 2 h 1 min
Bit rate mode : Constant
Bit rate : 192 kb/s
Channel(s) : 2 channels
Channel layout : L R
Sampling rate : 48.0 kHz
Frame rate : 31.250 FPS (1536 SPF)
Bit depth : 16 bits
Compression mode : Lossy
Stream size : 166 MiB (0%)
Title : Ukrainian (ac3 2.0)
Language : Ukrainian
Service kind : Complete Main
Default : No
Alternate group : 1
Encoded date : UTC 2019-08-01 02:23:24
Tagged date : UTC 2019-08-01 02:41:10

Audio #4
ID : 5
Format : AC-3
Format/Info : Audio Coding 3
Commercial name : Dolby Digital
Codec ID : ac-3
Duration : 2 h 1 min
Bit rate mode : Constant
Bit rate : 448 kb/s
Channel(s) : 6 channels
Channel layout : L R C LFE Ls Rs
Sampling rate : 48.0 kHz
Frame rate : 31.250 FPS (1536 SPF)
Bit depth : 16 bits
Compression mode : Lossy
Stream size : 388 MiB (1%)
Title : English (ac3 5.1)
Language : English
Service kind : Complete Main
Default : No
Alternate group : 1
Encoded date : UTC 2019-08-01 02:23:24
Tagged date : UTC 2019-08-01 02:41:10



Скачать Хеллбой через торрент https://d.radikal.ru/d00/1907/d5/528aea07813f.png Скачать, смотреть онлайн Хеллбой бесплантно в хорошем качестве Описание: Близится час битвы Хеллбоя с Кровавой королевой, жаждущей отомстить всему человечеству за века в заточении. Оказавшись в ... 10 10 5
Info! Золотая раздача, скачанное не засчитывается.
Торрент: Зарегистрирован [2019-08-02 11:24] · скачан: 58 раз
Статус: √ проверено
Размер: 56.96 GB
Как cкачать? Как скачать Хеллбой через торрент | UTorrent

% Раздел Тема Автор DL S | L
Ultra HD (UHD: 2K, 4K, 8K) [ 62.7 GB ] Хеллбой / Hellboy | iTunes | 2160p bober100 Скачать
1 | 0
Фильмы 2019-2020 [DVDrip, WEB-DLRip, HDrip] (DUB, MVO) [ 2.42 GB ] Хеллбой / Hellboy | Лицензия | HDRip-AVC Enigma2010 Скачать
3 | 0
Ultra HD (UHD: 2K, 4K, 8K) [ 13.67 GB ] Хеллбой / Hellboy | Лицензия | 2160p bober100 Скачать
1 | 0
Ultra HD (UHD: 2K, 4K, 8K) [ 25.02 GB ] Хеллбой / Hellboy | Лицензия | 2160p bober100 Скачать
1 | 0
Фильмы [HD 720p, 1080p] (Хороший звук DUB, MVO) [ 7.01 GB ] Хеллбой / Hellboy | Лицензия | 1080p, (10 bit bober100 Скачать
1 | 0
Фильмы 2019-2020 [DVDrip, WEB-DLRip, HDrip] (DUB, MVO) [ 2.18 GB ] Хеллбой / Hellboy | Лицензия | BDRip Twi7ter Скачать
4 | 0
Фильмы 2019-2020 [DVDrip, WEB-DLRip, HDrip] (DUB, MVO) [ 1.46 GB ] Хеллбой / Hellboy | Лицензия | BDRip Twi7ter Скачать
2 | 0

28-11-2019 20:33  


Отключить вcю реклaмy на сайте, в т.ч. и в плеере онлайн просмотра!

06-01-2021 05:51 Хеллбой Скачать торрент  

встаньте на раздачу



    Дорогой пользователь! Огромная просьба, поблагодарите релизера, оцените раздачу и оставьте свои комментарий, если Вы скачали Хеллбой через торрент бесплатно!!
    Комментировать посты могут только пользователи прошедшие не сложную регистрацию
    Показать сообщения:    


    Хеллбой через торрент
    Скачать бесплатно Хеллбой
    Хеллбой скачать торрент
    Хеллбой смотреть онлайн
    Cкачать фильм Хеллбой бесплатно
    Хеллбой скачать торрент в хорошем качестве
    Хеллбой смотреть онлайн бесплатно в хорошем качестве
    Вы не можете начинать темы
    Вы не можете отвечать на сообщения
    Вы не можете редактировать свои сообщения
    Вы не можете удалять свои сообщения
    Вы не можете голосовать в опросах
    Вы не можете прикреплять файлы к сообщениям
    Вы можете скачивать файлы
    Хеллбой / Hellboy [2019, фэнтези, боевик, приключения, UHD BDRemux 2160p] [Dolby Vision TV] Дубляж [iTunes] + MVO [СВ Студия] смотреть онлайн, скачать торрент picoco.icu