Достать ножи: Стеклянная луковица

MVO

Добыча

Дубляж

Уэнсдэй

1 сезон

Тор

Дубляж

13 клиническая

1 сезон

Жестокая ночь

MVO

Одни из нас

1 сезон

Deluxe

pack

Рекомендуем

30

Пиратка

ВАЖНО

ВАЖНО

Ghostwire

Пиратка

jed

RePack

nioh2

RePack

RDR2

RePack

NEED FOR SPEED™ PAYBACK

RePack

скачать торрент

Кинопоиск HD

Острые козырьки 6 сезон

6 сезон

FAR CRY 6

RePack

скачать торрент

Лицензия

скачать торрент

MVO

1

1 сезон

скачать торрент

1 сезон

скачать торрент

Лицензия

  

Доблесть / Glory (Эдвард Цвик) [1989, драма, военный, биография, UHD BDRemux 2160p] 2xAVO [Ю. Живов, В. Дохалов]

Доблесть через торрент piratbit.org

Размер: 56.54 GB | Добавлен: 3 года 5 мес. назад | Торрент скачан:10 раз
Смотреть онлайн | Скачать | Поддержите нас   

02-08-2019 11:41 Доблесть Скачать торрент  

Доблесть / Glory««Their innocence. Their heritage. Their lives. Nothing would be spared in the fight for their freedom»»

Год выпуска: 1989
Страна: США
Жанр: драма, военный, биография, история
Продолжительность: 02:02:14
Перевод: Авторский
Субтитры: Русские, английские
Режиссер: Эдвард Цвик
В ролях:

Мэттью Бродерик (Col. Robert Gould Shaw), Дензел Вашингтон (Pvt. Trip), Кэри Элвес (Maj. Cabot Forbes), Морган Фриман (Sgt. Maj. John Rawlins), Джими Кеннеди (Pvt. Jupiter Sharts), Андре Брогер (Cpl. Thomas Searles), Джон Финн (Sgt. Maj. Mulcahy), Донован Лейтч мл. (Capt. Charles Fessenden Morse), ДжейДи Каллам (Henry Sturgis Russell), Алан Норт (Gov. John Albion Andrew), Боб Гантон (Gen. Charles Garrison Harker), Клифф Де Янг (Col. James M. Montgomery)
Описание:
Полковник Шоу был офицером армии Федералов во времена Гражданской войны в США. Он добровольно вызвался стать командиром первого в истории США подразделения чернокожих солдат. Полковник должен обучить их и повести в бой. Но времени на подготовку слишком мало, а впереди решающее сражение с регулярными войсками южан.
Рейтинг:

MPAA: R - Лицам до 17 лет обязательно присутствие взрослого
Качество: UHD BDRemux 2160p
Формат: MKV
Видео: HEVC HDR, 51.3 Mбит/с, 3840x2160, 23.976 кадр/с
Аудио #1: 48 kHz, DTS-HD MA, 6ch, ~2342.00 kbps avg /RUS/ Одноголосый закадровый, Ю. Живов
Аудио #2: 48 kHz, DTS-HD MA, 6ch, ~2339.00 kbps avg /RUS/ Одноголосый закадровый, В. Дохалов
Аудио #3: 48 kHz, AC3, 2ch, ~192.00 kbps avg /UKR/ Многоголосый закадровый
Аудио #4: 48 kHz, TrueHD, 8ch, ~5712.00 kbps avg /ENG/ Оригинал
Аудио #5: 48 kHz, DTS-HD MA, 8ch, ~4114.00 kbps avg /ENG/ Оригинал
Аудио #6: 48 kHz, AC3, 6ch, ~640.00 kbps avg /ENG/ Оригинал
Навигация по главам: Есть

Complete name : E:\Movies\Glory.1989.2160p.BluRay.REMUX.HEVC.DTS-HD.MA.TrueHD.7.1.Atmos.Rus.Ukr.Eng-SHD13.mkv
Format : Matroska
Format version : Version 4
File size : 56.5 GiB
Duration : 2 h 2 min
Overall bit rate mode : Variable
Overall bit rate : 66.2 Mb/s
Movie name : Glory.1989.2160p.BluRay.REMUX.HEVC.DTS-HD.MA.TrueHD.7.1.Atmos.Rus.Ukr.Eng-SHD13
Encoded date : UTC 2019-08-01 20:54:25
Writing application : mkvmerge v34.0.0 ('Sight and Seen') 64-bit
Writing library : libebml v1.3.7 + libmatroska v1.5.0
Attachments : poster.png

Video
ID : 1
Format : HEVC
Format/Info : High Efficiency Video Coding
Format profile : Main 10@L5.1@High
HDR format : SMPTE ST 2086, HDR10 compatible
Codec ID : V_MPEGH/ISO/HEVC
Duration : 2 h 2 min
Bit rate : 51.3 Mb/s
Width : 3 840 pixels
Height : 2 160 pixels
Display aspect ratio : 16:9
Frame rate mode : Constant
Frame rate : 23.976 (24000/1001) FPS
Color space : YUV
Chroma subsampling : 4:2:0 (Type 2)
Bit depth : 10 bits
Bits/(Pixel*Frame) : 0.258
Stream size : 43.8 GiB (78%)
Title : Glory.1989.2160p.BluRay.REMUX.HEVC.DTS-HD.MA.TrueHD.7.1.Atmos.Rus.Ukr.Eng-SHD13
Language : Russian
Default : No
Forced : No
Color range : Limited
Color primaries : BT.2020
Transfer characteristics : PQ
Matrix coefficients : BT.2020 non-constant
Mastering display color pri : Display P3
Mastering display luminance : min: 0.0050 cd/m2, max: 4000 cd/m2
Maximum Content Light Level : 7605 cd/m2
Maximum Frame-Average Light : 1226 cd/m2

Audio #1
ID : 2
Format : DTS XLL
Format/Info : Digital Theater Systems
Commercial name : DTS-HD Master Audio
Codec ID : A_DTS
Duration : 2 h 2 min
Bit rate mode : Variable
Bit rate : 2 342 kb/s
Channel(s) : 6 channels
Channel layout : C L R Ls Rs LFE
Sampling rate : 48.0 kHz
Frame rate : 93.750 FPS (512 SPF)
Bit depth : 16 bits
Compression mode : Lossless
Stream size : 2.00 GiB (4%)
Title : AVO, Ю. Живов
Language : Russian
Default : No
Forced : No

Audio #2
ID : 3
Format : DTS XLL
Format/Info : Digital Theater Systems
Commercial name : DTS-HD Master Audio
Codec ID : A_DTS
Duration : 2 h 2 min
Bit rate mode : Variable
Bit rate : 2 339 kb/s
Channel(s) : 6 channels
Channel layout : C L R Ls Rs LFE
Sampling rate : 48.0 kHz
Frame rate : 93.750 FPS (512 SPF)
Bit depth : 16 bits
Compression mode : Lossless
Stream size : 2.00 GiB (4%)
Title : AVO, В. Дохалов
Language : Russian
Default : No
Forced : No

Audio #3
ID : 4
Format : AC-3
Format/Info : Audio Coding 3
Commercial name : Dolby Digital
Codec ID : A_AC3
Duration : 2 h 2 min
Bit rate mode : Constant
Bit rate : 192 kb/s
Channel(s) : 2 channels
Channel layout : L R
Sampling rate : 48.0 kHz
Frame rate : 31.250 FPS (1536 SPF)
Bit depth : 16 bits
Compression mode : Lossy
Stream size : 168 MiB (0%)
Title : MVO
Language : Ukrainian
Service kind : Complete Main
Default : No
Forced : No

Audio #4
ID : 5
Format : MLP FBA 16-ch
Format/Info : Meridian Lossless Packing FBA with 16-channel presentation
Commercial name : Dolby TrueHD with Dolby Atmos
Codec ID : A_TRUEHD
Duration : 2 h 2 min
Bit rate mode : Variable
Bit rate : 3 599 kb/s
Maximum bit rate : 5 712 kb/s
Channel(s) : 8 channels
Channel layout : L R C LFE Ls Rs Lb Rb
Sampling rate : 48.0 kHz
Frame rate : 1 200.000 FPS (40 SPF)
Compression mode : Lossless
Stream size : 3.07 GiB (5%)
Language : English
Default : Yes
Forced : No
Number of dynamic objects : 11
Bed channel count : 1 channel
Bed channel configuration : LFE

Audio #5
ID : 6
Format : DTS XLL
Format/Info : Digital Theater Systems
Commercial name : DTS-HD Master Audio
Codec ID : A_DTS
Duration : 2 h 2 min
Bit rate mode : Variable
Bit rate : 4 114 kb/s
Channel(s) : 8 channels
Channel layout : C L R LFE Lb Rb Lss Rss
Sampling rate : 48.0 kHz
Frame rate : 93.750 FPS (512 SPF)
Bit depth : 24 bits
Compression mode : Lossless
Stream size : 3.51 GiB (6%)
Language : English
Default : No
Forced : No

Audio #6
ID : 7
Format : AC-3
Format/Info : Audio Coding 3
Commercial name : Dolby Digital
Codec ID : A_AC3
Duration : 2 h 2 min
Bit rate mode : Constant
Bit rate : 640 kb/s
Channel(s) : 6 channels
Channel layout : L R C LFE Ls Rs
Sampling rate : 48.0 kHz
Frame rate : 31.250 FPS (1536 SPF)
Bit depth : 16 bits
Compression mode : Lossy
Stream size : 560 MiB (1%)
Language : English
Service kind : Complete Main
Default : No
Forced : No

Audio #7
ID : 8
Format : DTS XLL
Format/Info : Digital Theater Systems
Commercial name : DTS-HD Master Audio
Codec ID : A_DTS
Duration : 2 h 2 min
Bit rate mode : Variable
Bit rate : 1 569 kb/s
Channel(s) : 2 channels
Sampling rate : 48.0 kHz
Frame rate : 93.750 FPS (512 SPF)
Bit depth : 16 bits
Compression mode : Lossless
Stream size : 1.34 GiB (2%)
Language : English
Default : No
Forced : No

Text #1
ID : 9
Format : UTF-8
Codec ID : S_TEXT/UTF8
Codec ID/Info : UTF-8 Plain Text
Duration : 1 h 55 min
Bit rate : 79 b/s
Count of elements : 1154
Stream size : 67.0 KiB (0%)
Title : Full
Language : Russian
Default : Yes
Forced : No

Text #2
ID : 10
Format : UTF-8
Codec ID : S_TEXT/UTF8
Codec ID/Info : UTF-8 Plain Text
Duration : 1 h 50 min
Bit rate : 49 b/s
Count of elements : 1252
Stream size : 40.4 KiB (0%)
Title : Full
Language : English
Default : No
Forced : No

Menu
00:00:00.000 : en:Chapter 01
00:08:28.049 : en:Chapter 02
00:17:17.661 : en:Chapter 03
00:21:54.771 : en:Chapter 04
00:29:55.168 : en:Chapter 05
00:36:53.169 : en:Chapter 06
00:50:45.500 : en:Chapter 07
00:56:42.732 : en:Chapter 08
01:04:52.722 : en:Chapter 09
01:12:09.616 : en:Chapter 10
01:17:47.537 : en:Chapter 11
01:27:55.687 : en:Chapter 12
01:36:09.889 : en:Chapter 13
01:42:32.437 : en:Chapter 14
01:48:20.577 : en:Chapter 15
01:52:35.665 : en:Chapter 16



Скачать Доблесть через торрент https://b.radikal.ru/b21/1908/71/4fdd33ec2f8f.jpg Скачать, смотреть онлайн Доблесть бесплантно в хорошем качестве Описание: Полковник Шоу был офицером армии Федералов во времена Гражданской войны в США. Он добровольно вызвался стать командиром первого в ... 10 10 1
Торрент: Зарегистрирован [2019-08-02 11:41] · скачан: 10 раз
Статус: √ проверено
Размер: 56.54 GB
Как cкачать? Как скачать Доблесть через торрент | UTorrent

% Раздел Тема Автор DL S | L
Ultra HD (UHD: 2K, 4K, 8K) [ 31.63 GB ] Доблесть / Glory | MVO + 2xAVO | 2160p sheker187 Скачать
1 | 0
Фильмы без перевода [ 86.08 GB ] Доблесть / Glory | | 2160p sheker187 Скачать
1 | 0
Фильмы до 2000 г. [ 2.05 GB ] Доблесть / Glory | | HDRip MVO кэп Скачать
1 | 0

28-11-2019 20:33  


Отключить вcю реклaмy на сайте, в т.ч. и в плеере онлайн просмотра!

    Дорогой пользователь! Огромная просьба, поблагодарите релизера, оцените раздачу и оставьте свои комментарий, если Вы скачали Доблесть через торрент бесплатно!!
    Комментировать посты могут только пользователи прошедшие не сложную регистрацию
    Показать сообщения:    


    Доблесть через торрент
    Скачать бесплатно Доблесть
    Доблесть скачать торрент
    Доблесть смотреть онлайн
    Cкачать фильм Доблесть бесплатно
    Доблесть скачать торрент в хорошем качестве
    Доблесть смотреть онлайн бесплатно в хорошем качестве
    Вы не можете начинать темы
    Вы не можете отвечать на сообщения
    Вы не можете редактировать свои сообщения
    Вы не можете удалять свои сообщения
    Вы не можете голосовать в опросах
    Вы не можете прикреплять файлы к сообщениям
    Вы можете скачивать файлы
    Доблесть / Glory [1989, драма, военный, биография, UHD BDRemux 2160p] 2xAVO [Ю. Живов, В. Дохалов] смотреть онлайн, скачать торрент picoco.icu